<?xml version="1.0" standalone="no"?>
<!DOCTYPE svg PUBLIC "-//W3C//DTD SVG 1.1//EN" "http://www.w3.org/Graphics/SVG/1.1/DTD/svg11.dtd" >
<svg xmlns="http://www.w3.org/2000/svg">
<metadata></metadata>
<defs>
<font id="GillSansRegular" horiz-adv-x="1024" >
<font-face units-per-em="2048" ascent="1638" descent="-410" />
<missing-glyph horiz-adv-x="569" />
<glyph horiz-adv-x="0" />
<glyph horiz-adv-x="2048" />
<glyph unicode=" "  horiz-adv-x="569" />
<glyph unicode="&#x09;" horiz-adv-x="569" />
<glyph unicode="&#xa0;" horiz-adv-x="569" />
<glyph unicode="!" horiz-adv-x="555" d="M156 100q0 54 34.5 88.5t88.5 34.5v4q54 -10 88 -41.5t34 -85.5q0 -76 -76 -109q-21 -9 -46 -9q-56 0 -89.5 31.5t-33.5 86.5zM162 1044v68q0 103 13 173.5t51 106.5q20 19 50 19q23 0 40.5 -11t28.5 -27t19.5 -41t12 -45t7.5 -47q7 -53 7 -132q0 -62 -7 -174 q-2 -31 -5 -45l-51 -348q0 -3 -2 -20t-3 -22t-3 -18.5t-4 -20t-5 -16.5t-7.5 -16.5t-9.5 -11.5q-8 -8 -18 -8q-9 0 -15.5 4.5t-11.5 14t-8.5 19t-6 24t-4 24t-3 24t-2.5 19.5l-51 356l-5 41q-7 56 -7 110z" />
<glyph unicode="&#x22;" horiz-adv-x="724" d="M98 1227v239h181v-239l-48 -281h-86zM446 1227v239h181v-239l-47 -281h-86z" />
<glyph unicode="#" horiz-adv-x="1196" d="M2 233v142h213l74 348h-287v141h315l84 400h148l-84 -400h397l84 400h148l-84 -400h186v-141h-215l-74 -348h289v-142h-317l-84 -399h-148l84 399h-397l-84 -399h-148l84 399h-184zM362 375h398l74 348h-398z" />
<glyph unicode="$" horiz-adv-x="1110" d="M104 121v252q18 -20 34 -33q14 -12 63 -51q17 -18 85 -55q73 -41 203 -72v446q-165 41 -260 121q-99 89 -118 186q-2 10 -2 17q0 2 -1 5t-1.5 5.5t-0.5 4.5v16q0 62 17.5 115.5t49.5 93t71 69t87 50.5q69 31 158 46v78h168v-74q20 -6 66 -16.5t68 -17.5q40 -13 92 -41 l43 -25q19 -11 37 -24v-218l-22 17q-10 6 -23.5 17t-26.5 20.5t-25 15.5q-77 45 -142 69q-41 15 -67 19v-401q177 -54 273 -156q98 -101 98 -244v-20q-2 -8 -2 -11v-10q0 -6 -4 -18q0 -9 -4 -21q-25 -105 -115 -192q-44 -44 -104.5 -69t-141.5 -33v-224h-168v224 q-42 2 -145 24q-34 12 -68 25q-11 5 -81 40q-52 26 -64 35q-4 1 -27 15zM307 989q0 -31 11.5 -58t28 -44.5t43 -34t48 -25.5t51.5 -20v354q-36 -7 -67 -20t-57.5 -33t-42 -51t-15.5 -68zM657 168q79 14 126.5 55t47.5 117q0 61 -38 109q-23 24 -54 42t-82 41v-364z" />
<glyph unicode="%" horiz-adv-x="1392" d="M51 1096q0 104 55.5 180t139.5 110q57 23 119 23v4q135 -10 219 -96q94 -91 94 -221q0 -103 -55.5 -178t-139.5 -112q-55 -24 -118 -24q-129 0 -222 90q-92 95 -92 224zM160 -20l919 1435h154l-920 -1435h-153zM203 1096q0 -55 28 -93.5t72 -57.5q26 -11 62 -11 q71 0 116 45.5t45 116.5q0 52 -28.5 91t-70.5 58q-27 12 -62 12v5q-45 -6 -81 -26t-58.5 -56.5t-22.5 -83.5zM715 289q0 129 92 221t221 92v4q135 -10 219 -96q94 -91 94 -221q0 -127 -94 -221q-88 -88 -219 -88q-104 0 -179 52.5t-111 135.5q-23 53 -23 121zM866 289 q0 -71 46 -116.5t116 -45.5q71 0 116.5 45.5t45.5 116.5q0 52 -28.5 91t-70.5 58q-29 13 -63 13v4q-54 -7 -92.5 -34.5t-57.5 -71.5q-12 -27 -12 -60z" />
<glyph unicode="&#x26;" horiz-adv-x="1280" d="M57 309q0 123 93 228q93 98 237 184q-35 38 -59 69t-49.5 76t-37.5 90q-12 44 -12 88q0 114 58 189.5t154 109.5q66 23 147 23q112 0 192.5 -51t119.5 -135q24 -52 24 -117q0 -169 -162 -299q-60 -51 -94 -74l196 -221q5 -5 46.5 52t60.5 85q4 5 6 15q13 19 14 24 q3 4 6 11.5t7 11.5q1 4 5 11t5 11v4h200q-8 -29 -19 -51l-24 -49q-24 -54 -57 -102q-29 -42 -59 -86q-34 -43 -68 -82l283 -324h-258l-160 190q-84 -80 -162.5 -128.5t-181.5 -69.5q-49 -10 -98 -10q-116 0 -201 54.5t-125 143.5q-27 60 -27 129zM258 309q2 -50 32.5 -84 t76.5 -52q27 -11 63 -11t68 7.5t61.5 24t48.5 29.5t47 36q35 28 74 67v4l-227 262q-14 -10 -50.5 -35t-62 -44.5t-45.5 -39.5q-40 -34 -63 -72t-23 -92zM426 1051q0 -5 2 -13v-5q0 -3 2 -5q0 -3 1 -6t1 -6q24 -89 107 -172q0 -4 7.5 -10t8.5 -9q79 49 125 95q9 10 17 20 l16 23q22 39 22 65v7q0 3 2 5v13q0 66 -45 104.5t-114 38.5q-63 0 -107 -35.5t-45 -93.5v-16z" />
<glyph unicode="'" horiz-adv-x="385" d="M102 1227v239h181v-239l-47 -281h-86z" />
<glyph unicode="(" horiz-adv-x="661" d="M131 440v63q0 9 2 29v17q0 6 2 16q0 5 1 15.5t1 15.5q37 347 246 647q67 96 145 174l109 4q-142 -190 -218.5 -420.5t-76.5 -525.5q0 -298 75.5 -527.5t219.5 -418.5h-109q-250 250 -347 592q-33 116 -47 257q-1 10 -1 30q0 5 -1 16t-1 16z" />
<glyph unicode=")" horiz-adv-x="661" d="M25 -471q142 194 218 421.5t76 520.5v4q0 291 -76.5 520t-217.5 422l108 4q164 -173 262 -381q105 -212 129 -444v-16q0 -7 2 -15q0 -5 1 -16t1 -17v-15q0 -5 2 -15v-62q-2 -10 -2 -16v-16l-3 -30q-1 -10 -1 -32q-24 -229 -129 -442q-101 -214 -262 -375h-108z" />
<glyph unicode="*" horiz-adv-x="854" d="M20 824v10q0 7 2 14t5 12.5t7 10.5t9 8q24 21 51 32h2l2 2h2l260 95v-2q-2 0 -2 1v7q-2 0 -2 1v14q0 3 2 5q0 9 4 13v4l-262 90q-1 -4 -3 -4h-3q-4 0 -4 4q-67 25 -67 80v8q0 25 20.5 43t46.5 18h4q0 -2 1 -2h16q29 -7 57 -35l205 -174q2 -2 5.5 0l7 4t5.5 4q8 3 12 7 q1 0 3.5 1t3.5 1q0 2 1 2h3l-52 270q-4 4 -4 10v23q0 34 19.5 58t52.5 24q34 0 52 -23.5t18 -60.5v-8q-2 -6 -2 -7v-12q-2 -2 -2 -4v-4l-52 -262q6 -6 13 -6q1 -1 5 -3t5 -3q3 -1 6 -4t7 -7.5t5 -5.5l205 182q3 1 7 3t7.5 4.5t8 5.5t6.5 4q20 9 37 12h1q1 0 3 2h10 q46 0 64 -53v-4q0 -2 2 -4v-11q0 -25 -25 -47l-25 -16q-16 -10 -24 -14h-2l-2 -2h-2l-256 -84v-5q0 -2 2 -4v-34q-2 -2 -2 -4v-5l256 -84q0 -6 4 -6h4q0 -2 1 -2h1q14 -7 23.5 -13t21 -16t17.5 -23t6 -28q0 -5 -2 -11t-5 -13t-4 -10q-18 -23 -24 -27q-30 -6 -31 -6h-14 q-31 0 -66 35l-205 182q-2 -5 -8.5 -10.5t-11.5 -5.5q-1 0 -2 -1.5t-2.5 -2.5t-2.5 -1h-3q-2 0 -4.5 -2t-3.5 -2h-3l52 -264v-7q0 -3 2 -5v-12q0 -2 2 -2v-9q-8 -88 -72 -88q-70 0 -70 84v17q0 6 4 18l52 272q-14 -4 -39 21l-207 -176q-9 -11 -25 -23q-5 -1 -15 -5t-15 -5 q-2 0 -4.5 -2t-3.5 -2h-15q-6 0 -11.5 0.5t-10 2t-8 3t-7 4.5t-6 5t-5.5 6l-4.5 6t-5 7.5t-4.5 7.5q-3 4 -3 9z" />
<glyph unicode="+" horiz-adv-x="1196" d="M115 639v168h399v399h168v-399h399v-168h-399v-399h-168v399h-399z" />
<glyph unicode="," horiz-adv-x="448" d="M94 131q0 53 33.5 85t87.5 32q72 0 108.5 -57.5t36.5 -141.5v-14q-2 -6 -2 -7v-8q0 -10 -4 -22q-18 -91 -79.5 -152t-153.5 -88v39q36 26 51 62q24 42 27 78v22q0 2 2 4v21q-2 2 -2 5v7q0 4 -4 20q-47 0 -74 32t-27 83z" />
<glyph unicode="-" horiz-adv-x="661" d="M82 356v191h498v-191h-498z" />
<glyph unicode="." horiz-adv-x="448" d="M100 100q0 53 35 88t88 35v4q54 -10 88.5 -42t34.5 -85q0 -76 -77 -109q-21 -9 -46 -9q-55 0 -89 32t-34 86z" />
<glyph unicode="/" horiz-adv-x="575" d="M16 -18l402 1433h143l-401 -1433h-144z" />
<glyph unicode="0" d="M61 694q0 322 123 520q122 197 328 197q113 0 191 -52.5t135 -144.5q124 -200 125 -516q0 -321 -125 -522q-57 -91 -135 -142.5t-191 -51.5q-207 0 -328 194q-123 198 -123 518zM262 694q0 -243 66 -387q70 -139 184 -139q66 0 108.5 37.5t73.5 101.5q68 142 68 387v4 q0 245 -68 381q-30 67 -72.5 104.5t-109.5 37.5q-66 0 -109.5 -38.5t-74.5 -103.5q-66 -138 -66 -385z" />
<glyph unicode="1" d="M414 0v1397h200v-1397h-200z" />
<glyph unicode="2" d="M70 0v14q14 14 46 52q48 59 98 120l52 64q10 16 23 32l24 29q7 8 15 19.5t16.5 22.5t15.5 20q38 46 55 70q51 75 97 143l43 67q6 11 20.5 36t20.5 38q43 67 49 141q8 32 8 84q0 114 -69 189q-64 73 -170 73q-128 0 -234 -98q-44 -41 -82 -90v256q14 8 21 13l22 16 q7 4 34 20t37 21t34.5 17.5t40.5 17.5t40.5 12t49 9.5t51.5 2.5q147 0 249 -71.5t147 -189.5q30 -80 30 -175q0 -18 -1.5 -36.5t-4.5 -43.5t-4 -35q-29 -133 -129 -291q-105 -157 -295 -383l534 4v-190h-884z" />
<glyph unicode="3" d="M131 57v222q78 -61 158 -84q70 -27 153 -27q69 0 120 26.5t78.5 77t27.5 119.5q0 99 -70 166q-65 68 -205 68h-24v188q198 -13 259 115q17 35 17 84q0 101 -67 155t-175 54h-14q-6 -2 -7 -2h-20q-6 -2 -7 -2h-7q-32 -2 -68 -12.5t-56 -18.5t-58 -25v195q5 -2 11 0.5 t13.5 6.5t10.5 5q59 22 110 33q63 10 123 10q141 0 240 -57t143 -158q29 -67 29 -149q0 -122 -44 -192t-134 -122q94 -28 145 -114t55 -209v-9q0 -100 -31.5 -173.5t-91.5 -131.5q-123 -114 -317 -114q-168 0 -297 75z" />
<glyph unicode="4" d="M23 459v92l706 864h86v-776h150v-180h-150v-459h-201v459h-591zM291 639h323v397h-4z" />
<glyph unicode="5" d="M102 63v211q139 -106 306 -106q116 0 202 74t86 178q0 107 -88 186q-86 80 -246 80q-55 0 -155 -20v731h620v-180h-438v-351q4 -4 6 -4h11q2 2 4 2h20q164 -2 274.5 -73.5t160.5 -196.5q32 -79 32 -170q0 -197 -129 -320q-122 -122 -328 -122q-96 0 -168 18 q-8 0 -22.5 3.5t-18.5 4.5q-2 1 -4.5 2t-4.5 1.5t-4.5 1t-4.5 1.5l-4 2q-12 5 -34 14t-40 17t-33 16z" />
<glyph unicode="6" d="M90 473q0 263 143 510q147 250 416 428v4l121 -153q-214 -129 -344 -335q-55 -87 -84 -182q116 58 219 58q171 0 279 -117q112 -115 112 -291q0 -170 -123 -293q-120 -120 -288 -120q-205 0 -326 133q-125 134 -125 358zM287 440q0 -93 42 -159t112 -96q40 -17 87 -17 q105 0 162 63q62 62 62 166q0 98 -65 156.5t-167 58.5q-25 0 -57 -4l-25 -4q-22 -3 -52 -16l-26 -13q-27 -16 -61 -36q-1 -9 -6.5 -34.5t-5.5 -41.5v-23z" />
<glyph unicode="7" d="M100 1206v191h904l-633 -1415l-178 77l512 1147h-605z" />
<glyph unicode="8" d="M66 375q0 223 198 334q-115 84 -154 215q-12 41 -12 86q0 172 123 286q124 115 305 115q182 0 293 -117q119 -113 119 -288v-17q-2 -8 -2 -10v-8q0 -3 -1 -8.5t-1 -8.5q-4 -16 -4 -18q-35 -142 -166 -227q192 -112 194 -332q0 -95 -33 -163t-94 -122q-122 -110 -315 -110 q-194 0 -321 110q-129 117 -129 283zM266 389q0 -78 41.5 -130.5t107.5 -75.5q43 -15 97 -15q168 0 229 138q17 39 17 83v4q0 50 -20.5 91.5t-52 67.5t-72.5 42q-42 16 -97 16q-87 0 -145.5 -34.5t-86.5 -97.5q-18 -40 -18 -89zM299 1014q0 -90 66 -150q63 -63 153 -63 q72 0 125 36.5t78 92.5q16 36 16 80v4q0 68 -37 118.5t-93 72.5q-40 16 -85 16q-66 0 -116.5 -24t-78.5 -71t-28 -112z" />
<glyph unicode="9" d="M74 997q0 157 116 285q117 129 310 129q192 0 319 -145q125 -149 125 -365q0 -56 -8 -104q-1 -24 -8 -54l-13 -53q-55 -214 -194 -399q-140 -195 -338 -309l-123 147q174 109 295 259q56 69 75 114l11 22l9 21q2 4 5 10.5t4 9.5l9 21q14 31 18 63q-46 -29 -114 -45 l-37 -8q-26 -6 -33 -6h-33q-168 0 -281 119q-36 38 -60 77.5t-39 93.5t-15 117zM274 1004q0 -75 42 -130t105 -78q45 -16 91 -16q96 0 185 59q23 15 30 17q2 6 8 49v9q0 4 2 12v43q0 55 -20 102t-51.5 79t-72.5 51q-43 20 -89 20q-66 0 -118 -27t-81.5 -76t-30.5 -114z" />
<glyph unicode=":" horiz-adv-x="448" d="M100 100q0 53 35 88t88 35v4q54 -10 88.5 -42t34.5 -85q0 -76 -77 -109q-21 -9 -46 -9q-55 0 -89 32t-34 86zM100 811q0 53 35 88t88 35v4q54 -10 88.5 -42t34.5 -85q0 -54 -34.5 -88.5t-88.5 -34.5q-55 0 -89 34t-34 89z" />
<glyph unicode=";" horiz-adv-x="448" d="M98 139q0 59 32.5 92t90.5 33q67 0 102 -55.5t35 -134.5q0 -122 -63.5 -200.5t-169.5 -109.5v39q4 1 7 4.5t6.5 7.5t6.5 6q20 13 27 34q37 46 37 129v16q-2 0 -2 2v16q-109 20 -109 121zM100 811q0 53 35 88t88 35q51 0 86 -34.5t37 -84.5q0 -56 -34 -91.5t-89 -35.5 t-89 34t-34 89z" />
<glyph unicode="&#x3c;" horiz-adv-x="1196" d="M113 641v168l970 414v-179l-770 -319l770 -319v-179z" />
<glyph unicode="=" horiz-adv-x="1196" d="M115 416v168h966v-168h-966zM115 862v168h966v-168h-966z" />
<glyph unicode="&#x3e;" horiz-adv-x="1196" d="M113 227v179l770 319l-770 319v179l970 -414v-168z" />
<glyph unicode="?" horiz-adv-x="681" d="M164 543q0 65 19 113.5t55 105.5l41 65q3 3 4.5 6t3 5.5t4.5 5.5q2 5 6 11t8.5 12t5.5 12q11 11 13 16q21 31 34 56t24 62.5t11 76.5q0 62 -36.5 99.5t-98.5 37.5h-20q-6 -2 -9 -2h-8q-20 -4 -28 -6h-7q-2 -2 -3 -2h-9l-1 -1q-1 -2 -2 -2h-3v5l96 196q53 -1 96.5 -11 t78 -29t60.5 -44.5t48 -59.5q36 -56 45 -120v-9q0 -3 2 -9v-19q0 -61 -16.5 -121t-34.5 -97t-49 -91q-25 -43 -56 -92q-57 -91 -106 -174t-49 -160v-18q0 -1 2 -7q-59 29 -90 72.5t-31 116.5zM193 100q0 54 34.5 88.5t87.5 34.5v4q54 -10 88.5 -42t34.5 -85q0 -76 -77 -109 q-21 -9 -46 -9q-55 0 -88.5 32t-33.5 86z" />
<glyph unicode="@" horiz-adv-x="2068" d="M111 465q0 150 38 291q69 273 297 504q229 229 654 229q372 0 614 -221q244 -223 244 -559q0 -150 -48.5 -269t-135.5 -225q-91 -110 -196 -165q-104 -54 -218 -54q-98 0 -148.5 38t-50.5 126q-33 -42 -94 -88q-26 -17 -49 -33q-9 -4 -24.5 -11t-28.5 -12.5t-26 -8.5 q-18 -4 -28 -7q-9 0 -26.5 -1t-26.5 -1q-130 0 -215.5 75.5t-124.5 193.5q-26 78 -26 179q0 135 41.5 239.5t119.5 197.5q77 96 170 147q89 49 189 49q191 0 301 -184l35 160h180l-168 -772q-4 -28 -4 -29q-2 -8 -2 -11v-10q0 -36 18 -56.5t53 -20.5q46 0 118 48l10 7 q102 68 192 223q63 120 63 277q0 272 -204 452q-201 180 -512 180q-360 0 -596 -245q-114 -119 -175 -268.5t-61 -348.5q0 -144 35.5 -262.5t102.5 -206t157.5 -148t205.5 -96.5q164 -51 363 -51q359 0 589 183q68 54 112 114v4h184q-280 -448 -887 -448q-474 0 -741 240 q-131 115 -200.5 275t-69.5 380zM678 436q0 -206 132 -274q41 -21 89 -21q66 0 127 39q62 39 118 119t83 163q28 85 28 181q0 62 -14 114t-41.5 92t-72.5 62.5t-103 22.5q-66 0 -126 -39q-61 -40 -114 -118t-79 -162q-26 -85 -27 -179z" />
<glyph unicode="A" horiz-adv-x="1366" d="M0 0l600 1405h141l625 -1405h-205l-186 412h-594l-176 -412h-205zM459 592h434l-225 506z" />
<glyph unicode="B" horiz-adv-x="1153" d="M154 0v1397h405q155 -6 253.5 -61.5t148.5 -163.5q27 -57 28 -123v-13q0 -118 -56 -187t-157 -112q114 -24 196 -84.5t118 -153.5q22 -57 22 -130v-17q-2 -6 -2 -8v-8q0 -65 -49 -143q-83 -132 -228 -170q-87 -23 -200 -23h-479zM354 180h252q18 -1 36 -1q125 0 187 57 q65 56 74 131v4q0 2 2 4v22q0 59 -24.5 102t-68 67.5t-97.5 36t-119 11.5l-242 4v-438zM354 799h133q18 -1 34 -1q46 0 85 8q53 11 93 36.5t61.5 70t21.5 105.5q0 99 -65 146.5t-178 47.5l-185 5v-418z" />
<glyph unicode="C" horiz-adv-x="1449" d="M98 674q0 316 215 528q215 209 551 209q89 0 182.5 -19.5t146 -38t150.5 -57.5v-211l-80 40q-86 41 -151 63l-39 11q-104 26 -166 26q-16 2 -23 2h-22q-241 0 -399 -152t-158 -383q0 -236 156 -383t409 -147q187 0 367 90q10 4 20.5 9.5t21.5 11.5t19 10l30 17 q20 12 30 19v-215q-108 -60 -229.5 -91t-276.5 -31q-310 0 -485 151q-181 159 -236 342l-8 25q-8 23 -12 51l-5 24q-8 43 -8 99z" />
<glyph unicode="D" horiz-adv-x="1536" d="M156 0v1397h542q357 -9 529 -193q86 -90 139.5 -190.5t69.5 -225.5v-12q0 -4 2 -10q0 -4 1 -12.5t1 -12.5v-12q0 -4 2 -10v-25q0 -148 -52.5 -264t-146.5 -219q-196 -211 -543 -211h-544zM356 180h320q18 -1 36 -1q198 0 310 93q139 108 179 240q2 8 8.5 25t10.5 31t5 28 q10 63 10 98q0 211 -139 365q-135 153 -430 153l-310 5v-1037z" />
<glyph unicode="E" d="M154 0v1397h792v-180h-592v-422h572v-181h-572v-434h611v-180h-811z" />
<glyph unicode="F" horiz-adv-x="960" d="M156 0v1397h745v-180h-545v-388h545v-180h-545v-649h-200z" />
<glyph unicode="G" horiz-adv-x="1515" d="M102 686q0 304 215 516q215 209 535 209h39q10 -2 18 -2h19q9 0 37 -4q19 0 35 -2.5t43 -9.5t33 -8q72 -16 168 -52l106 -41v-198q-11 5 -42.5 20t-53.5 24.5t-45 16.5l-46 16q-91 32 -188 48l-66 6h-15q-5 0 -15 2h-31q-229 0 -383 -154q-156 -153 -156 -381 q0 -95 25.5 -176t72 -141.5t107 -104.5t134.5 -71q101 -37 226 -37q81 0 151 14t153 41v291h-269v180h469v-592q-75 -37 -178 -70q-82 -26 -129 -26q-17 -4 -37 -6l-37 -4q-67 -8 -151 -8q-328 0 -533 196q-211 199 -211 508z" />
<glyph unicode="H" horiz-adv-x="1492" d="M154 0v1397h200v-609h783v609h200v-1397h-200v608h-783v-608h-200z" />
<glyph unicode="I" horiz-adv-x="512" d="M156 0v1397h200v-1397h-200z" />
<glyph unicode="J" horiz-adv-x="512" d="M-127 -281h51q76 0 126 18.5t69 61.5q37 80 37 240v1358h200v-1413q0 -197 -88 -324q-86 -131 -293 -131h-12q-2 2 -5 2h-30q0 2 -1 2h-13z" />
<glyph unicode="K" horiz-adv-x="1343" d="M154 0v1397h200v-639l588 639h250l-608 -662l757 -735h-276l-711 690v-690h-200z" />
<glyph unicode="L" horiz-adv-x="1003" d="M152 0v1397h200v-1217h631v-180h-831z" />
<glyph unicode="M" horiz-adv-x="1599" d="M150 0v1397h188l463 -574l465 574h186v-1397h-201v1087h-4l-430 -540h-33l-430 540h-4v-1087h-200z" />
<glyph unicode="N" horiz-adv-x="1599" d="M152 0v1397h159l946 -1082v1082h189v-1397h-172l-934 1075v-1075h-188z" />
<glyph unicode="O" horiz-adv-x="1685" d="M92 694v4q0 107 27.5 201t71 163.5t106.5 135.5q204 213 545 213q348 0 549 -213q202 -211 202 -504q0 -284 -200 -499q-201 -213 -555 -213q-341 0 -545 213q-96 103 -148.5 223t-52.5 276zM299 698q0 -231 154 -385q154 -151 389 -151q238 0 389 151q156 153 156 381 t-156 381q-152 152 -389 152q-184 0 -314 -89t-190 -234q-38 -93 -39 -206z" />
<glyph unicode="P" horiz-adv-x="1044" d="M143 0v1397h437q236 -9 335 -123q109 -118 109 -283q0 -163 -115 -278q-113 -113 -356 -113l-209 4v-604h-201zM344 784h227q15 -1 29 -1q90 1 149 51q68 58 68 165v21q-3 69 -59 131q-55 61 -178 61l-236 5v-433z" />
<glyph unicode="Q" horiz-adv-x="1685" d="M92 694q0 313 215 516q216 201 555 201q308 0 524 -207q211 -211 211 -514q0 -254 -163 -450q-165 -198 -418 -240v-2q77 -33 109.5 -46t96 -33t119.5 -29q42 -7 84 -7q56 0 113 17l6 -6l-180 -179q-106 8 -203 33.5t-183.5 68t-153 84t-146.5 99.5q-259 42 -424 240 q-162 189 -162 454zM299 692q0 -210 139 -370q145 -160 420 -160q231 0 383 155q150 159 150 371q0 232 -154 383q-153 156 -383 156v4q-236 -9 -356 -117q-51 -45 -87.5 -93t-63.5 -109t-42 -134l-4 -44q-2 -28 -2 -42z" />
<glyph unicode="R" horiz-adv-x="1236" d="M158 0v1397h352q102 -4 183.5 -28.5t144.5 -71t97 -122t34 -174.5q0 -129 -63.5 -214t-170.5 -128q120 -88 201 -213q26 -39 53 -84q12 -17 29 -44l29 -46q3 -4 5.5 -10t6.5 -10q1 -3 5 -9.5t5 -9.5q4 -5 12.5 -17t12.5 -17v-3q0 -1 2 -1q0 -1 1 -3.5t1 -3.5 q11 -11 20.5 -23.5t25 -36.5t17.5 -28q25 -32 35 -46l41 -54h-240l-184 287q-53 83 -97 140.5t-91 98.5q-79 64 -136 72h-5q-1 0 -7 2h-17q-3 0 -5 2h-13l-84 4v-606h-200zM358 786h129q17 -1 33 -1q129 0 185 65q57 69 57 156v4q-6 211 -275 211l-129 4v-439z" />
<glyph unicode="S" horiz-adv-x="937" d="M82 1038q0 168 115 271q120 102 309 102q92 0 165 -26t146 -72v-223q-28 24 -52.5 42.5t-57 38t-64 32t-72 20.5t-82.5 8q-94 0 -157.5 -42.5t-63.5 -123.5q0 -33 9.5 -61t29.5 -50t36.5 -36t43.5 -33q7 -5 100 -63l27 -15q8 -4 18.5 -10t20.5 -11.5t18 -9.5 q116 -69 207 -160q94 -94 94 -260t-110 -270t-281 -104q-124 0 -217.5 31.5t-173.5 92.5v259q73 -99 172 -156q88 -51 197 -51q126 0 195 86q19 24 26 49q0 4 4 20v4q0 1 2 7v10q0 92 -70 153q-35 30 -56.5 48t-56 42t-66.5 40l-19 12q-2 2 -4.5 3.5t-4 2.5t-4 2.5t-4.5 3.5 q-3 1 -8 5t-8 5q-120 72 -209 156q-94 88 -94 231z" />
<glyph unicode="T" horiz-adv-x="1236" d="M35 1217v180h1167v-180h-483v-1217h-201v1217h-483z" />
<glyph unicode="U" horiz-adv-x="1449" d="M125 524v873h201v-826q0 -112 18 -184q23 -66 66 -106q113 -119 301 -119q132 0 227.5 44t143.5 127q44 77 44 247v817h201v-848q0 -260 -156 -416q-151 -151 -464 -151q-221 0 -402 127q-180 132 -180 415z" />
<glyph unicode="V" horiz-adv-x="1236" d="M0 1397h201l420 -981l417 981h199l-592 -1409h-41z" />
<glyph unicode="W" horiz-adv-x="2134" d="M0 1397h201l385 -963l387 963h190l389 -963l381 963h199l-567 -1409h-39l-459 1142l-463 -1142h-39z" />
<glyph unicode="X" horiz-adv-x="1449" d="M4 0l602 723l-559 674h244l438 -533l436 533h242l-557 -674l596 -723h-242l-475 578l-481 -578h-244z" />
<glyph unicode="Y" horiz-adv-x="1236" d="M0 1397h242l374 -482l379 482h242l-518 -660v-737h-201v739z" />
<glyph unicode="Z" horiz-adv-x="1323" d="M33 0l889 1217h-834v180h1204l-889 -1217h889v-180h-1259z" />
<glyph unicode="[" horiz-adv-x="681" d="M176 -453v1850h477v-164h-280v-1522h280v-164h-477z" />
<glyph unicode="\" horiz-adv-x="575" d="M16 1415h144l401 -1433h-143z" />
<glyph unicode="]" horiz-adv-x="681" d="M29 -289h280v1522h-280v164h477v-1850h-477v164z" />
<glyph unicode="^" horiz-adv-x="960" d="M53 596l355 801h145l354 -801h-182l-246 598l-241 -598h-185z" />
<glyph unicode="_" d="M-12 -154h1048v-102h-1048v102z" />
<glyph unicode="`" horiz-adv-x="681" d="M123 1339h205l137 -301h-113z" />
<glyph unicode="a" horiz-adv-x="874" d="M53 203q0 125 84 180q82 58 185 94q4 0 12 4q6 0 10 4q4 0 12 4q6 0 11 5l161 61v49q0 158 -166 158h-10q-1 0 -3 -1t-3 -1h-20q-147 -20 -254 -150v203q115 121 305 121q153 0 243.5 -78t90.5 -225v-469q0 -27 6.5 -39t27.5 -12q18 0 38.5 10t29.5 16.5t29 22.5v-107 q-18 -14 -28.5 -21.5t-28 -18.5t-34.5 -17t-36 -8q-16 -4 -25 -4h-5q-1 0 -7 -2h-12q-55 0 -95 18q-32 20 -45 72q-112 -90 -247 -90q-80 0 -132.5 37.5t-77.5 100.5q-16 40 -16 83zM238 236q0 -60 35.5 -95t95.5 -35q56 0 121 45q23 16 38 31v273l-109 -45q-4 -2 -24 -10 t-26 -11t-24 -11.5t-24.5 -13t-21 -14t-21 -17t-16 -19t-13.5 -23t-7.5 -25.5t-3.5 -30z" />
<glyph unicode="b" d="M121 47v1350h182v-543q60 38 119 59t135 21q172 0 285 -131q112 -127 112 -328q0 -233 -131 -364q-123 -129 -360 -129h-19q-6 2 -9 2h-27q-6 2 -10 2h-9q-22 1 -46 4t-55 7.5t-44 6.5q-75 16 -123 43zM303 182q6 -4 13 -6.5t15.5 -5t14.5 -4.5q8 -1 23 -4.5t27.5 -5.5 t23.5 -2q6 -2 10 -2h12q3 0 7.5 -1t8.5 -1.5t8 -0.5h21q126 0 201 84q80 80 80 216q0 107 -40.5 185.5t-112.5 113.5q-45 22 -103 22q-19 0 -27 -1l-24 -3q-58 -7 -101 -45q-12 -6 -31.5 -23.5t-25.5 -21.5v-494z" />
<glyph unicode="c" horiz-adv-x="897" d="M84 438q0 173 70 291t197 171q81 34 188 34q75 0 142 -19l42 -12q18 -6 20 -6q10 -3 20.5 -7.5t22.5 -10.5t19 -9v-190l-59 32q-39 22 -97 41q-22 7 -45 9h-6q-4 0 -6 2h-21q-4 0 -6 2h-14q-132 0 -206.5 -86t-74.5 -225q0 -146 82.5 -225.5t229.5 -79.5h30q20 0 41 3 t36.5 6.5t38 11.5t32.5 12t34.5 14.5t30.5 13.5v-176q-12 -7 -27 -13.5t-27.5 -10.5t-34.5 -8t-32.5 -6t-36.5 -6t-34 -5h-12q-5 0 -11 -2h-29q-4 0 -10 -2h-20q-205 0 -336 125q-131 131 -131 331z" />
<glyph unicode="d" horiz-adv-x="1044" d="M90 477q0 199 129 328t330 129h26q2 -2 6 -2h5l37 -4q12 -1 24 -3t26 -6t21.5 -6.5t24.5 -8t22 -7.5v500h183v-1397h-387q-161 0 -266.5 75t-150.5 205q-30 87 -30 197zM276 451q0 -103 37.5 -177.5t109.5 -102.5q54 -21 134 -21l184 4v585q-4 0 -22 6q-6 0 -13.5 2 t-17 6t-12.5 5q-7 0 -19 4q-6 1 -21 3t-22 3h-11q-3 0 -9 2h-23q-103 0 -173 -51.5t-101 -137.5q-21 -58 -21 -130z" />
<glyph unicode="e" horiz-adv-x="980" d="M84 467q0 213 119 338q117 129 311 129q178 0 291 -125q108 -130 108 -381l-647 4q41 -280 309 -280q69 0 152 25l31 11l29 13q6 2 23.5 11.5t27.5 12.5q11 10 18 13q21 12 41 24v-172q-1 -2 -3 -4.5t-5 -4.5t-4 -3q-3 -1 -7.5 -4t-7.5 -4q-73 -55 -168 -70 q-64 -18 -172 -18q-213 0 -331 145q-115 148 -115 340zM270 549v4h463q-3 101 -59.5 162t-155.5 61q-110 0 -168.5 -60t-79.5 -167z" />
<glyph unicode="f" horiz-adv-x="512" d="M18 756v164h129v67q0 128 31 205q12 26 24.5 49t29 45.5t34.5 41t41 35t49 27.5t57 17t66 6l60 -6q17 -2 67 -14v-174q-11 0 -13 -0.5t-12.5 4t-11.5 4.5h-5q-3 0 -5 2h-17q-3 0 -5 2h-13q-103 0 -148.5 -57.5t-45.5 -169.5v-84h166v-164h-166v-756h-183v756h-129z" />
<glyph unicode="g" horiz-adv-x="874" d="M0 -193q0 58 17 101.5t50 72t71.5 46t92.5 30.5q-40 24 -51 39q-11 11 -15.5 16t-12 15.5t-10.5 21.5t-3 25q0 23 9 43t23 33.5t34 25t39 18t41 11.5v8q-92 26 -147.5 100.5t-55.5 184.5q0 117 64 191.5t169 104.5q74 21 168 21l379 5v-142h-188q11 -16 20 -26l19 -23 q15 -15 30 -41l13 -28q14 -31 14 -87v-12q-2 -2 -2 -5v-7q0 -21 -6.5 -44t-12.5 -36t-18 -35l-12 -20q-36 -64 -107 -99l-40 -16q-15 -6 -76 -21q-8 -2 -13 -2q-93 -16 -135 -30q-37 -15 -37 -53q0 -15 7.5 -26.5t23 -20.5t26 -13t29.5 -11l9 -3q18 -6 62.5 -17t61.5 -16 q28 -3 62 -12q142 -29 207 -94q59 -71 59 -158q0 -112 -70 -179.5t-182 -94.5q-77 -19 -182 -19q-186 0 -305 80q-119 77 -119 198zM172 -184q0 -142 256 -142q184 0 238 78q16 23 16 55q0 16 -4 30t-10 24t-16.5 19.5t-19.5 15.5t-24 13t-24 10.5t-25 9.5q-33 12 -70 18 l-28 4q-20 2 -29 2q-20 2 -26 2h-25q-99 0 -152 -39q-57 -36 -57 -100zM246 592q0 -81 51 -123q48 -45 133 -45q40 0 73 12t55.5 34t35 54t12.5 72v4q0 51 -33 89.5t-78 55.5q-34 13 -67 13q-40 0 -74.5 -14t-57.5 -36.5t-37 -52.5q-13 -27 -13 -63z" />
<glyph unicode="h" d="M125 0v1397h182v-598h4q58 62 123 98.5t152 36.5q132 0 223 -94q90 -90 90 -281v-559h-182v569q0 96 -46.5 157.5t-133.5 61.5q-34 0 -50 -6q-11 -1 -23 -6l-22 -8q-31 -14 -65 -45l-34 -31q-20 -18 -36 -37v-655h-182z" />
<glyph unicode="i" horiz-adv-x="448" d="M117 1194q0 47 31 78t77 31t76 -33q31 -29 33 -72q0 -49 -30.5 -81t-78.5 -32q-47 0 -77.5 30.5t-30.5 78.5zM133 0v920h182v-920h-182z" />
<glyph unicode="j" horiz-adv-x="448" d="M-12 -336q53 22 98 74q39 52 39 127v1055h182v-1041q0 -135 -45 -218t-137 -132zM109 1194q0 47 31 78t77 31t76 -33q31 -28 33 -72q0 -49 -30.5 -81t-78.5 -32q-47 0 -77.5 30.5t-30.5 78.5z" />
<glyph unicode="k" horiz-adv-x="980" d="M127 0v1397h182v-1397h-182zM317 469l408 451h217l-393 -451l475 -469h-246z" />
<glyph unicode="l" horiz-adv-x="448" d="M133 0v1397h182v-1397h-182z" />
<glyph unicode="m" horiz-adv-x="1579" d="M121 0v920h182v-121q101 97 204 126q32 9 64 9q183 0 275 -166q56 68 133 117t174 49q110 0 181.5 -58.5t102.5 -154.5q21 -66 21 -148v-573h-182v569q0 102 -57 156q-52 55 -134 55h-4q-9 0 -17.5 -1t-15.5 -3t-15.5 -5t-13.5 -5.5t-13.5 -7t-12.5 -7t-12.5 -7.5 t-11.5 -7l-24 -15q-26 -16 -44 -37l-20 -21v-664h-183v571q0 148 -102 196q-27 13 -64 13q-85 0 -159 -49q-9 -3 -18.5 -11.5t-19 -21t-13.5 -16.5q-4 -3 -19 -18v-664h-182z" />
<glyph unicode="n" d="M125 0v920h182v-121h4q58 62 123 98.5t152 36.5q132 0 221 -92q92 -89 92 -279v-563h-182v569q0 96 -46.5 157.5t-133.5 61.5q-34 0 -50 -6q-11 -1 -23 -6l-22 -8q-31 -14 -65 -45l-34 -31q-20 -18 -36 -37v-655h-182z" />
<glyph unicode="o" horiz-adv-x="1130" d="M74 465q0 198 139 334q144 135 346 135v4q222 -9 356 -137q142 -130 142 -336q0 -216 -139 -352q-134 -131 -359 -131q-216 0 -348 135q-137 134 -137 348zM260 465q0 -147 78.5 -235.5t218.5 -88.5q143 0 229 86q84 90 84 236q0 105 -52.5 178.5t-136.5 106.5 q-56 22 -124 22v4q-138 -10 -213 -90q-84 -84 -84 -219z" />
<glyph unicode="p" d="M117 -471v1391h315q518 -18 518 -471q0 -207 -131 -338q-129 -129 -336 -129h-28l-6 2h-5q-65 5 -145 34v-489h-182zM299 186q37 -26 128 -44q5 -1 15 -1h29q101 0 170 51.5t101 135.5q22 58 22 123q0 146 -77 223.5t-222 77.5l-166 4v-570z" />
<glyph unicode="q" d="M74 449q0 108 39 196q40 96 145 186q109 84 313 84l336 5v-1391h-182v485q-82 -32 -184 -32q-207 0 -336 129q-131 131 -131 338zM260 451q0 -106 48 -182.5t128 -113.5q52 -24 117 -24h29q50 0 115 29l28 12v584h-166q-1 -4 -5 -4h-17q-101 -9 -191 -80 q-86 -74 -86 -221z" />
<glyph unicode="r" horiz-adv-x="811" d="M141 0v920h183v-211h4q23 38 41.5 65t44 57.5t54.5 53t61 36.5q30 13 65 13q67 0 120 -32l31 -19q32 -25 68 -56l-96 -153q-8 5 -20.5 15t-18.5 14q-3 2 -8.5 6t-10 7.5t-8.5 4.5q-16 11 -28 16l-29 13l-26 7q-12 3 -21 3q-78 0 -132 -50.5t-76 -122.5q-15 -49 -15 -110 v-477h-183z" />
<glyph unicode="s" horiz-adv-x="788" d="M84 61v201q119 -92 241 -118q32 -7 60 -7q58 3 96.5 29t38.5 76q0 27 -18 45q-3 4 -21 20l-26 23q-6 5 -33 20l-37 21q-23 11 -40 22l-40 25q-81 47 -147 110q-30 28 -49 68t-19 88q0 115 82 182q80 68 221 68q71 0 131 -19q32 -7 69 -23l71 -34v-176q-116 67 -211 86 q-30 6 -56 6q-32 0 -58.5 -8.5t-44.5 -28t-18 -47.5q0 -14 9 -28.5t18 -23t25 -20.5q49 -43 172 -112q44 -31 56 -40l46 -36q41 -30 66 -65t35 -86q4 -20 4 -31q0 -96 -50.5 -158.5t-133.5 -90.5q-51 -17 -120 -17q-27 0 -71 4l-36 4q-48 4 -120 28q-14 7 -45.5 21t-46.5 22 z" />
<glyph unicode="t" horiz-adv-x="681" d="M0 756v20l342 334v-190h291v-164h-291v-471q0 -67 27 -97q31 -32 72 -45q6 -2 12 -2h20q39 0 100 17l53 22q24 11 54 29v-166q-40 -35 -105 -43q-35 -9 -63 -12q-20 -6 -53 -6q-144 0 -221.5 72.5t-77.5 211.5v490h-160z" />
<glyph unicode="u" d="M123 344v576h182v-584q0 -207 189 -207q131 0 219 129v662h182v-920h-182v117q-78 -98 -174 -117q-5 -1 -13 -3.5t-14 -4t-13.5 -3t-14 -3t-14 -2.5t-15 -1.5t-15.5 -0.5q-140 0 -229 92q-88 91 -88 270z" />
<glyph unicode="v" horiz-adv-x="897" d="M6 920h199l248 -566l241 566h195l-406 -938h-61z" />
<glyph unicode="w" horiz-adv-x="1472" d="M0 920h195l241 -558l234 558h135l233 -558l240 558h195l-406 -938h-57l-273 643l-270 -643h-57z" />
<glyph unicode="x" d="M0 0l387 467l-387 453h229l273 -316l262 316h233l-379 -453l406 -467h-233l-289 330l-273 -330h-229z" />
<glyph unicode="y" horiz-adv-x="897" d="M0 920h207l248 -519l237 519h205l-651 -1391h-203l313 668z" />
<glyph unicode="z" horiz-adv-x="854" d="M23 0l487 756h-467v164h784l-489 -756h491v-164h-806z" />
<glyph unicode="{" horiz-adv-x="681" d="M57 444v168q44 -3 78 7t56 33.5t37 52.5t22.5 69.5t10.5 79.5t3 88v184q0 180 64 267q61 94 227 94l80 4v-156h-31q-80 -7 -116.5 -27t-47.5 -79q-8 -43 -8 -105v-143q0 -147 -23.5 -242t-87.5 -152q-42 -37 -98 -61q87 -37 133.5 -101t63.5 -171q12 -76 12 -178v-144 q0 -44 2.5 -71.5t11 -55t25.5 -44.5t45 -25q33 -10 88 -10h31v-156h-80q-166 0 -227 94q-64 87 -64 270v181q0 250 -102 307q-40 22 -105 22z" />
<glyph unicode="|" horiz-adv-x="532" d="M188 -471v1868h156v-1868h-156z" />
<glyph unicode="}" horiz-adv-x="681" d="M47 -274h31q77 0 115 21.5t49 80.5q8 43 8 104v148q0 142 23.5 234.5t86.5 150.5q38 35 99 61q-88 37 -134.5 100.5t-63.5 170.5q-11 70 -11 180v151q0 86 -16 132t-67 61q-34 10 -89 10l-31 4v156h80q164 -9 227 -98q64 -96 64 -271v-176q0 -57 4 -101.5t14 -89.5 t31.5 -77t52.5 -48q42 -22 105 -22v-159q-64 -5 -104.5 -27t-61.5 -66q-41 -88 -41 -245v-177q0 -174 -64 -270q-67 -94 -227 -94h-80v156z" />
<glyph unicode="~" horiz-adv-x="1196" d="M51 401v174q34 25 50.5 36.5t52 32.5t62 31t64.5 18.5t76 8.5q44 0 86 -12l44 -12q20 -6 40.5 -14.5t48.5 -21t39 -17.5q12 -5 53 -24.5t62 -27.5t58.5 -17t72.5 -9q65 0 157 46l19 11q5 4 18.5 12.5t18.5 12.5q29 19 37 26l37 29v-166q-52 -52 -129 -92l-37 -16 q-60 -25 -109 -25q-2 -2 -5 -2h-19q-61 0 -136 28l-46 17q-6 4 -13.5 7.5t-15.5 7t-15 6t-15.5 6t-14.5 6.5q-67 28 -129 53q-69 25 -121 25q-50 0 -92.5 -16.5t-89.5 -44.5q-28 -17 -47 -32q-29 -20 -62 -45z" />
<glyph unicode="&#xa1;" horiz-adv-x="555" d="M154 913q0 54 34.5 88.5t87.5 34.5q52 0 87.5 -35.5t35.5 -87.5q0 -54 -34.5 -88t-88.5 -34v4q-53 -9 -87.5 27t-34.5 91zM164 -28q0 33 6 89.5t6 63.5l51 356q10 66 21 94q8 31 31 31q8 0 15 -4.5t12 -14t8.5 -18.5t6 -24t4 -23.5t3 -24.5t2.5 -20l51 -348 q12 -60 12 -219q0 -107 -12.5 -177.5t-51.5 -106.5q-20 -19 -50 -19q-23 0 -40.5 11t-28.5 27t-19.5 41t-12 45t-7.5 47q-7 53 -7 132v62z" />
<glyph unicode="&#xa2;" horiz-adv-x="897" d="M78 438q0 218 119 355q118 141 342 141h20q6 -2 9 -2h12q13 0 20 -1l21 -3l120 342h95l-129 -359q10 -10 43 -20q4 -4 8 -4h4q0 -2 1 -2h1q27 -9 35 -17v-188q-14 6 -22 11l-23 16l-18 9t-21.5 10.5t-18.5 7.5l-6 3q-7 0 -41 13l-209 -572q45 -28 105 -28q1 0 3.5 -1.5 t4.5 -1.5h49q108 6 217 64v-172q-41 -22 -110 -37l-54 -9q-37 -6 -53 -7h-8q-2 0 -8 -2h-27q-2 0 -8 -2h-37q-8 0 -18 2q-7 0 -19.5 1t-19.5 1q-19 2 -38 6l-40 8l-141 -389h-97l158 428q-101 54 -161 156t-60 243zM264 449q0 -78 26 -131t75 -99v4l196 545q-1 -4 -5 -4h-19 q-133 0 -201 -98q-72 -95 -72 -217z" />
<glyph unicode="&#xa3;" horiz-adv-x="1087" d="M121 -18l162 604h-148v180h195q70 242 190 442q119 203 326 203h16q6 -2 9 -2h10q6 -1 12.5 -2t13.5 -2t13 -2l106 -197h-22q-11 1 -31.5 5.5t-28.5 5.5l-24 3q-8 1 -25 1q-47 0 -88.5 -15.5t-69.5 -38t-55 -55.5q-86 -104 -156 -350l156 4v-180h-209l-102 -387 q2 -2 4 -2h18q4 2 6 2h54q31 0 83.5 -4.5t77.5 -4.5l21 -3q10 -1 26 -5t30 -6t28 -2q28 -4 43 -4q14 -2 22 -2h25q137 0 207 41v-191q-1 -4 -10.5 -8t-16.5 -4q-18 -6 -24 -6h-13q-3 0 -7 -1t-7 -1q-64 -16 -137 -16q-22 0 -61 5t-60 5q-21 3 -45 6q-4 0 -12 1t-11 1h-22 q-17 0 -45 4h-13q-4 0 -12 2h-35q-4 0 -10 2h-22q-102 0 -146 -6q-7 0 -21.5 -1t-21.5 -1q-44 -4 -84 -8q-19 0 -59 -10z" />
<glyph unicode="&#xa4;" horiz-adv-x="1130" d="M76 326l137 137q-34 37 -53 98.5t-19 132.5q0 135 72 236l-137 141l117 117l137 -137q115 67 235 67q133 0 236 -71l137 141l117 -117l-137 -137q31 -49 36 -73q1 -5 7 -13q2 -8 11 -42t11 -54q6 -22 6 -58v-16q-2 -8 -2 -10v-9q-4 -20 -4 -32q-11 -57 -27 -92 q-11 -34 -38 -76v4l137 -137l-117 -117l-137 137q-95 -76 -236 -76q-127 0 -235 72l-137 -133zM305 694q0 -86 46 -150t115 -91q49 -19 99 -19q87 0 149 45t92 116q19 45 19 99q0 107 -75 185q-78 75 -185 75v4q-114 -10 -187 -79.5t-73 -184.5z" />
<glyph unicode="&#xa5;" horiz-adv-x="1130" d="M-2 1466h201l368 -659l355 659h211l-402 -710h338v-150h-410v-143h410v-137h-410v-326h-182v326h-416v137h416v143h-416v150h342z" />
<glyph unicode="&#xa6;" horiz-adv-x="569" />
<glyph unicode="&#xa7;" horiz-adv-x="831" d="M66 602q0 99 34.5 165.5t100.5 129.5q-4 9 -11 20.5t-12.5 23t-9.5 22.5q-4 12 -10 36l-8 37q-7 28 -7 31v31q0 7 2 27l5 32l8 33q24 88 110 162q71 59 189 59q78 0 137.5 -27.5t85.5 -77.5q16 -31 16 -69q0 -50 -29 -81.5t-77 -31.5q-55 0 -78 60q0 1 -1 3t-1 3 q-2 0 -2 1v13q0 37 -8 56q-3 20 -51 20q-67 0 -104 -35t-38 -100q0 -34 6 -62.5t20.5 -54.5t25 -41t32.5 -42q19 -24 55 -58l21 -24q17 -20 47 -42q4 -5 12.5 -12.5t10.5 -9.5q62 -58 157 -183q72 -106 72 -245q0 -117 -70 -213l-24 -33q-24 -30 -58 -64q36 -59 54 -108 t18 -119q0 -49 -12.5 -89.5t-32 -69.5t-49.5 -58q-91 -88 -232 -88q-75 0 -132 30.5t-83 82.5q-16 32 -16 73q0 54 31.5 88.5t83.5 34.5q42 0 69 -27t27 -69v-4q-2 -2 -2 -3v-3q-2 -6 -2 -7v-6q-4 -4 -4 -8v-10q-2 0 -2 -1v-9q0 -31 49 -31q62 0 102 43q45 42 45 102 q0 47 -15.5 84t-43.5 78q-18 26 -39 47q-31 34 -63 70q-24 22 -35 34l-33 36q-91 91 -160 196q-71 99 -71 252zM221 635q0 -59 18 -101.5t53 -92.5q20 -28 48 -58q5 -5 16.5 -18.5t16.5 -18.5l19 -19q13 -13 18 -20q35 -37 75 -78q5 -2 13 -10t10 -14q5 -2 12.5 -10.5 t9.5 -14.5q57 57 74 142v8q0 2 2 8v16q0 36 -7.5 66.5t-25.5 59.5t-29.5 43.5t-36.5 44.5q-29 34 -61 63q-45 45 -81 72q-5 3 -11 12q-25 19 -47 44l-20 23v4q-4 -7 -16 -22t-17 -23q-3 -13 -12 -22q-1 -4 -11 -29.5t-10 -41.5v-13z" />
<glyph unicode="&#xa8;" horiz-adv-x="681" d="M55 1188q0 41 28 67.5t69 26.5v4q94 -20 94 -98q0 -41 -26.5 -68.5t-67.5 -27.5t-69 27.5t-28 68.5zM436 1188q0 40 27.5 67t68.5 27v4q95 -20 95 -98q0 -42 -27 -69t-68 -27t-68.5 27.5t-27.5 68.5z" />
<glyph unicode="&#xa9;" horiz-adv-x="1515" d="M2 733q0 116 28.5 216t75 174t115.5 143q221 221 535 221q116 0 216.5 -29t174.5 -76t143 -116q105 -105 162.5 -232.5t58.5 -296.5q0 -172 -57.5 -302t-163.5 -236q-105 -105 -233.5 -161t-300.5 -56q-171 0 -301 56.5t-234 160.5q-105 105 -162 234.5t-57 299.5z M127 733q0 -262 184 -446q88 -88 196 -136.5t249 -48.5q261 0 446 185q184 184 184 446v4q0 257 -184 441t-446 184q-261 0 -445 -184t-184 -445zM362 743q0 144 64 241.5t175 141.5q73 29 165 29q136 0 223 -62t119 -173l-119 -25q-65 149 -233 149q-49 0 -89 -15 t-69 -41.5t-48.5 -60t-32.5 -74.5q-17 -55 -17 -130q0 -92 27 -159t85.5 -106.5t145.5 -39.5q91 0 153 51q35 27 56 60t32 81v4l123 -36q-29 -132 -123.5 -204.5t-248.5 -72.5q-140 0 -230.5 70t-130.5 189q-27 81 -27 183z" />
<glyph unicode="&#xaa;" horiz-adv-x="575" d="M31 975q0 87 86 129q81 42 217 76q0 31 -3.5 51t-13.5 35.5t-28 22.5t-47 7q-10 0 -21 -2t-21 -4t-18 -2q-37 -12 -47 -20q-4 -3 -9.5 -6.5t-11.5 -7.5t-10 -7l-30 -26q-22 -20 -33 -31v145q83 76 211 76q88 0 151 -43q70 -43 70 -139v-281q0 -8 2 -14q0 -8 8 -8 q12 0 25 8q14 6 51 33v-82q-52 -42 -90 -47q-12 -4 -18 -4h-21q-78 0 -96 47q-36 -25 -70 -34q-3 -1 -15 -4.5t-20.5 -5t-17.5 -1.5q-1 0 -6 -1t-6 -1h-15q-99 0 -142 86q-11 22 -11 55zM172 993q0 -33 19 -51t53 -18h18q7 0 14.5 3t15.5 7.5t13 5.5q12 8 29 21v151 q-13 -8 -42.5 -18t-41.5 -17q-18 -8 -23 -10t-19.5 -10.5t-19.5 -15.5t-10.5 -20t-5.5 -28z" />
<glyph unicode="&#xab;" horiz-adv-x="1003" d="M61 461l301 461h181l-303 -461l303 -461h-181zM477 461l301 461h180l-303 -461l303 -461h-180z" />
<glyph unicode="&#xac;" horiz-adv-x="569" />
<glyph unicode="&#xad;" />
<glyph unicode="&#xae;" horiz-adv-x="1515" d="M2 733q0 116 28.5 216t75 174t115.5 143q221 221 535 221q116 0 216.5 -29t174.5 -76t143 -116q105 -105 162.5 -232.5t58.5 -296.5q0 -172 -57.5 -302t-163.5 -236q-105 -105 -233.5 -161t-300.5 -56q-171 0 -301 56.5t-234 160.5q-105 105 -162 234.5t-57 299.5z M127 733q0 -262 184 -446q88 -88 196 -136.5t249 -48.5q261 0 446 185q184 184 184 446v4q0 257 -184 441t-446 184q-261 0 -445 -184t-184 -445zM426 319v811h358q83 -6 136.5 -29t91.5 -70q17 -21 24.5 -42.5t15.5 -60.5q1 -5 1 -15q0 -104 -64 -164t-168 -69l27 -15 q62 -39 115 -122q21 -31 47 -70l98 -154h-160l-71 127l-37 61q-41 67 -60 86l-26 28q-28 19 -54 28.5t-65 9.5l-78 5v-345h-131zM557 776h188q47 -6 84.5 5.5t60.5 41t23 72.5q0 58 -40.5 89.5t-104.5 31.5l-211 4v-244z" />
<glyph unicode="&#xaf;" horiz-adv-x="569" />
<glyph unicode="&#xb0;" horiz-adv-x="569" />
<glyph unicode="&#xb1;" horiz-adv-x="1196" d="M115 0v168h966v-168h-966zM115 639v168h399v399h168v-399h399v-168h-399v-399h-168v399h-399z" />
<glyph unicode="&#xb2;" horiz-adv-x="569" />
<glyph unicode="&#xb3;" horiz-adv-x="569" />
<glyph unicode="&#xb4;" horiz-adv-x="681" d="M227 1038l138 301h204l-229 -301h-113z" />
<glyph unicode="&#xb5;" horiz-adv-x="1130" d="M178 -352v1272h182v-508q0 -156 58 -226q54 -71 145 -71q106 0 158 75q57 75 57 213v517h183v-920h-168v109h-5q-24 -43 -48.5 -69t-66 -42t-100.5 -16q-76 0 -123.5 26.5t-84.5 79.5l-5 4v-444h-182z" />
<glyph unicode="&#xb6;" horiz-adv-x="1110" d="M2 1049q0 206 125.5 309.5t345.5 103.5l633 4v-163h-143v-1711h-170v1711h-224v-1711h-163v1045q-143 2 -239.5 67.5t-137.5 178.5q-27 73 -27 166z" />
<glyph unicode="&#xb7;" horiz-adv-x="569" />
<glyph unicode="&#xb8;" horiz-adv-x="681" d="M207 -231q25 -5 31 -5h28q45 0 79 13.5t34 44.5q0 53 -92 53h-11q-2 0 -2 -2h-14l51 143h117l-14 -49q49 -12 79.5 -44.5t30.5 -84.5q0 -95 -64.5 -141.5t-170.5 -46.5h-21q-8 2 -11 2h-9q-13 0 -41 4v113z" />
<glyph unicode="&#xb9;" horiz-adv-x="569" />
<glyph unicode="&#xba;" horiz-adv-x="747" d="M47 1122q0 100 55.5 169t142.5 100q56 20 128 20q142 0 233 -82q93 -81 94 -203q0 -129 -94 -211q-90 -81 -233 -81q-74 0 -134.5 22t-101.5 60.5t-66 91.5q-24 51 -24 114zM188 1122q0 -83 52 -129q49 -49 135 -49q84 0 134 48t50 130v4q0 53 -23.5 93t-65 60.5 t-95.5 20.5q-86 0 -135 -49q-52 -46 -52 -129z" />
<glyph unicode="&#xbb;" horiz-adv-x="1003" d="M45 0l303 461l-303 461h180l301 -461l-301 -461h-180zM461 0l303 461l-303 461h180l301 -461l-301 -461h-180z" />
<glyph unicode="&#xbc;" horiz-adv-x="569" />
<glyph unicode="&#xbd;" horiz-adv-x="1728" d="M170 -55l932 1470h137l-932 -1470h-137zM258 680v727h141v-727h-141zM952 0v14q160 160 254 279q29 36 45 60.5t30.5 63t14.5 77.5q0 57 -36 89.5t-95 32.5q-64 0 -113.5 -34t-80.5 -84v164q8 2 21.5 12t21.5 12q4 3 11 6t11 6q54 24 80 27q20 6 60 6q111 0 190 -63 q74 -65 74 -166q0 -79 -64 -178q-58 -90 -186 -218l309 5v-111h-547z" />
<glyph unicode="&#xbe;" horiz-adv-x="569" />
<glyph unicode="&#xbf;" horiz-adv-x="681" d="M88 -98q0 46 7.5 87.5t25.5 83.5t29.5 64.5t37.5 68.5q23 41 56 93q57 90 106 174q49 83 49 160v18q-2 2 -2 3v3q60 -30 90.5 -72t30.5 -116q0 -81 -37 -152l-37 -68q-31 -59 -53 -81q-2 -7 -10 -18.5t-10 -16.5q-3 -3 -6.5 -8t-6.5 -8q-20 -32 -49 -94q-20 -43 -20 -97 q0 -62 36.5 -99.5t98.5 -37.5h18q6 2 10 2h9q20 4 28 6h7q2 2 3 2h9q2 2 3 2h3l-96 -196q-71 0 -126.5 17t-92.5 47t-66 76q-21 33 -40 99q-3 11 -3 21q-2 10 -2 17v20zM244 911q0 54 34.5 88.5t88.5 34.5q34 0 62 -16.5t44 -44.5t16 -62q0 -54 -34.5 -88.5t-87.5 -34.5v5 q-35 -6 -64 9t-44 44t-15 65z" />
<glyph unicode="&#xc0;" horiz-adv-x="1366" d="M0 0l600 1405h141l625 -1405h-205l-186 412h-594l-176 -412h-205zM459 592h434l-225 506zM465 1790h205l137 -301h-113z" />
<glyph unicode="&#xc1;" horiz-adv-x="1366" d="M0 0l600 1405h141l625 -1405h-205l-186 412h-594l-176 -412h-205zM459 592h434l-225 506zM569 1489l138 301h204l-229 -301h-113z" />
<glyph unicode="&#xc2;" horiz-adv-x="1366" d="M0 0l600 1405h141l625 -1405h-205l-186 412h-594l-176 -412h-205zM399 1487l187 309h190l193 -309h-113l-178 178l-170 -178h-109zM459 592h434l-225 506z" />
<glyph unicode="&#xc3;" horiz-adv-x="1366" d="M0 0l600 1405h141l625 -1405h-205l-186 412h-594l-176 -412h-205zM383 1526q2 26 5.5 48.5t9.5 46.5t14.5 43.5t21 37t28 29.5t36 19t45.5 7q13 0 20 -1l21 -3q38 -5 45 -8q22 -3 37 -12q12 -4 18 -4q12 -4 42 -17t54.5 -19.5t50.5 -6.5q35 0 53 21t21 56v4h78 q0 -82 -24 -142t-73 -87q-29 -16 -65 -16q-30 0 -58 6t-45 12.5t-44 18.5q-10 0 -21 4t-23.5 10t-19.5 8q-11 0 -34.5 6t-38.5 6q-64 0 -70 -71zM459 592h434l-225 506z" />
<glyph unicode="&#xc4;" horiz-adv-x="1366" d="M0 0l600 1405h141l625 -1405h-205l-186 412h-594l-176 -412h-205zM397 1638q0 41 28 68t69 27v4q94 -20 94 -99q0 -41 -27 -68.5t-67 -27.5q-41 0 -69 27.5t-28 68.5zM459 592h434l-225 506zM778 1638q0 40 27.5 67.5t68.5 27.5v4q95 -20 95 -99q0 -41 -27 -68.5 t-68 -27.5t-68.5 28t-27.5 68z" />
<glyph unicode="&#xc5;" horiz-adv-x="1366" d="M0 0l600 1405h141l625 -1405h-205l-186 412h-594l-176 -412h-205zM459 592h434l-225 506zM494 1671q0 63 33 108.5t84 67.5q35 15 73 15v4q83 -10 133 -62q57 -54 57 -133q0 -32 -9.5 -60.5t-25.5 -50.5t-37 -38t-45 -27q-32 -14 -73 -14q-77 0 -135 55q-55 58 -55 135z M571 1671q0 -48 32 -80t81 -32q32 0 58 14.5t40.5 40t14.5 57.5t-14.5 58t-40.5 40.5t-58 14.5v4q-113 -23 -113 -117z" />
<glyph unicode="&#xc6;" horiz-adv-x="1835" d="M4 0l827 1397h912v-180h-574v-420h555v-181h-555v-436h596v-180h-796v616h-391l-367 -616h-207zM680 797h289v477h-4z" />
<glyph unicode="&#xc7;" horiz-adv-x="1449" d="M98 674q0 316 215 528q215 209 551 209q68 0 131.5 -8.5t130 -29t105 -34.5t112.5 -43v-211l-80 40q-86 41 -151 63l-39 11q-104 26 -166 26q-16 2 -23 2h-22q-241 0 -399 -152t-158 -383q0 -236 156 -383t409 -147q187 0 367 90q13 5 33 16t28 15l30 17q20 12 30 19 v-215q-4 -8 -6 -8h-2q-2 -2 -3 -2h-1q-89 -49 -218 -84q-133 -28 -317 -28l-8 -29q48 -12 79 -44.5t31 -84.5q0 -135 -142 -176q-46 -13 -93 -13h-21q-1 0 -5 1.5t-6 1.5h-9q-13 0 -41 4v112q20 -4 31 -4h28q113 0 113 57q0 54 -92 54h-10q-2 0 -2 -2h-15l49 137 q-232 32 -376 176q-71 74 -118.5 145.5t-72.5 157.5l-8 25q-8 23 -12 51l-5 24q-8 43 -8 99z" />
<glyph unicode="&#xc8;" d="M154 0v1397h792v-180h-592v-422h572v-181h-572v-434h611v-180h-811zM295 1790h205l137 -301h-113z" />
<glyph unicode="&#xc9;" d="M154 0v1397h792v-180h-592v-422h572v-181h-572v-434h611v-180h-811zM399 1489l138 301h204l-229 -301h-113z" />
<glyph unicode="&#xca;" d="M154 0v1397h792v-180h-592v-422h572v-181h-572v-434h611v-180h-811zM229 1487l187 309h190l193 -309h-113l-178 178l-170 -178h-109z" />
<glyph unicode="&#xcb;" d="M154 0v1397h792v-180h-592v-422h572v-181h-572v-434h611v-180h-811zM227 1638q0 41 28 68t69 27v4q94 -20 94 -99q0 -41 -27 -68.5t-67 -27.5q-41 0 -69 27.5t-28 68.5zM608 1638q0 41 28 68t69 27v4q94 -20 94 -99q0 -41 -27 -68.5t-67 -27.5q-41 0 -69 27.5t-28 68.5z " />
<glyph unicode="&#xcc;" horiz-adv-x="512" d="M39 1790h205l137 -301h-113zM156 0v1397h200v-1397h-200z" />
<glyph unicode="&#xcd;" horiz-adv-x="512" d="M143 1489l138 301h204l-229 -301h-113zM156 0v1397h200v-1397h-200z" />
<glyph unicode="&#xce;" horiz-adv-x="512" d="M-27 1487l187 309h190l193 -309h-113l-178 178l-170 -178h-109zM156 0v1397h200v-1397h-200z" />
<glyph unicode="&#xcf;" horiz-adv-x="512" d="M-25 1638q0 41 26 68t67 27v4q94 -20 94 -99q0 -41 -27 -68.5t-67 -27.5q-39 0 -68 29q-25 36 -25 67zM156 0v1397h200v-1397h-200zM352 1638q0 41 28 68t69 27v4q94 -20 94 -99q0 -41 -27 -68.5t-67 -27.5q-41 0 -69 27.5t-28 68.5z" />
<glyph unicode="&#xd0;" horiz-adv-x="1536" d="M-8 608v180h164v609h542q353 -9 547 -221q197 -212 197 -482q0 -102 -27.5 -193.5t-69 -158.5t-102.5 -133q-194 -209 -543 -209h-544v608h-164zM356 180h324q231 -9 393 129t162 385q0 211 -139 365q-135 153 -430 153l-310 5v-429h396v-180h-396v-428z" />
<glyph unicode="&#xd1;" horiz-adv-x="1599" d="M152 0v1397h159l946 -1082v1082h189v-1397h-172l-934 1075v-1075h-188zM500 1526q20 231 159 231q54 0 86 -12q9 -1 26.5 -8.5t29.5 -7.5q12 -4 42 -17t54.5 -19.5t50.5 -6.5q34 0 53 21t21 56v4h78q0 -54 -10 -98t-32 -78.5t-55 -52.5q-29 -16 -65 -16q-30 0 -58 6 t-45 12.5t-44 18.5q-10 0 -21 4t-23.5 10t-19.5 8q-12 0 -35.5 6t-38.5 6q-63 0 -69 -71z" />
<glyph unicode="&#xd2;" horiz-adv-x="569" />
<glyph unicode="&#xd3;" horiz-adv-x="1685" d="M92 694v4q0 107 27.5 201t71 163.5t106.5 135.5q204 213 545 213q348 0 549 -213q202 -211 202 -504q0 -284 -200 -499q-201 -213 -555 -213q-341 0 -545 213q-96 103 -148.5 223t-52.5 276zM299 698q0 -231 154 -385q154 -151 389 -151q238 0 389 151q156 153 156 381 t-156 381q-152 152 -389 152q-184 0 -314 -89t-190 -234q-38 -93 -39 -206zM729 1489l137 301h205l-229 -301h-113z" />
<glyph unicode="&#xd4;" horiz-adv-x="1685" d="M92 694v4q0 107 27.5 201t71 163.5t106.5 135.5q204 213 545 213q348 0 549 -213q202 -211 202 -504q0 -284 -200 -499q-201 -213 -555 -213q-341 0 -545 213q-96 103 -148.5 223t-52.5 276zM299 698q0 -231 154 -385q154 -151 389 -151q238 0 389 151q156 153 156 381 t-156 381q-152 152 -389 152q-184 0 -314 -89t-190 -234q-38 -93 -39 -206zM559 1487l186 309h191l192 -309h-112l-178 178l-170 -178h-109z" />
<glyph unicode="&#xd5;" horiz-adv-x="1685" d="M92 694v4q0 107 27.5 201t71 163.5t106.5 135.5q204 213 545 213q348 0 549 -213q202 -211 202 -504q0 -284 -200 -499q-201 -213 -555 -213q-341 0 -545 213q-96 103 -148.5 223t-52.5 276zM299 698q0 -231 154 -385q154 -151 389 -151q238 0 389 151q156 153 156 381 t-156 381q-152 152 -389 152q-184 0 -314 -89t-190 -234q-38 -93 -39 -206zM543 1526q20 231 159 231q54 0 86 -12q9 -1 26.5 -8.5t29.5 -7.5q12 -4 42.5 -17t55 -20t49.5 -7q23 0 39.5 10.5t24.5 28t10 39.5v4h78q0 -54 -10 -98t-32 -78.5t-55 -52.5q-29 -16 -65 -16 q-30 0 -58 6t-45 12.5t-44 18.5q-10 0 -21 4t-23.5 10t-19.5 8q-12 0 -35.5 6t-38.5 6q-63 0 -69 -71z" />
<glyph unicode="&#xd6;" horiz-adv-x="1685" d="M92 694v4q0 107 27.5 201t71 163.5t106.5 135.5q204 213 545 213q348 0 549 -213q202 -211 202 -504q0 -284 -200 -499q-201 -213 -555 -213q-341 0 -545 213q-96 103 -148.5 223t-52.5 276zM299 698q0 -231 154 -385q154 -151 389 -151q238 0 389 151q156 153 156 381 t-156 381q-152 152 -389 152q-184 0 -314 -89t-190 -234q-38 -93 -39 -206zM557 1638q0 27 12.5 48.5t34.5 34t49 12.5v4q95 -20 95 -99q0 -41 -27.5 -68.5t-67.5 -27.5q-41 0 -68.5 27.5t-27.5 68.5zM938 1638q0 27 12.5 48.5t34.5 34t49 12.5v4q94 -20 94 -99 q0 -41 -26.5 -68.5t-67.5 -27.5t-68.5 27.5t-27.5 68.5z" />
<glyph unicode="&#xd7;" horiz-adv-x="569" />
<glyph unicode="&#xd8;" horiz-adv-x="1685" d="M92 694q0 158 54 280t151 224q204 213 545 213q243 0 428 -117l104 125l94 -82l-98 -114q196 -196 221 -471v-37q0 -4 2 -6v-15q0 -284 -200 -499q-201 -213 -555 -213h-17q-8 2 -10 2h-41q-226 21 -364 116v4l-97 -112l-96 67l100 117q-221 215 -221 518zM299 694 q0 -118 37.5 -203.5t105.5 -166.5v4l701 821q-2 -2 -4 -2t-4 2q-2 0 -7 4l-15 7.5l-16 8l-15 7.5t-17 7.5t-15.5 6t-17.5 7t-16.5 5t-18.5 4.5q-66 21 -155 21q-184 0 -314 -89t-190 -234q-39 -94 -39 -210zM535 254q123 -92 307 -92q238 0 389 151q75 73 115 165.5 t40 215.5q0 159 -87 297q-27 43 -60 76v4z" />
<glyph unicode="&#xd9;" horiz-adv-x="1449" d="M125 524v873h201v-826q0 -112 18 -184q23 -66 66 -106q113 -119 301 -119q132 0 227.5 44t143.5 127q44 77 44 247v817h201v-848q0 -260 -156 -416q-151 -151 -464 -151q-221 0 -402 127q-180 132 -180 415zM508 1790h205l137 -301h-113z" />
<glyph unicode="&#xda;" horiz-adv-x="1449" d="M125 524v873h201v-826q0 -112 18 -184q23 -66 66 -106q113 -119 301 -119q132 0 227.5 44t143.5 127q44 77 44 247v817h201v-848q0 -260 -156 -416q-151 -151 -464 -151q-221 0 -402 127q-180 132 -180 415zM612 1489l138 301h204l-229 -301h-113z" />
<glyph unicode="&#xdb;" horiz-adv-x="1449" d="M125 524v873h201v-826q0 -112 18 -184q23 -66 66 -106q113 -119 301 -119q132 0 227.5 44t143.5 127q44 77 44 247v817h201v-848q0 -260 -156 -416q-151 -151 -464 -151q-221 0 -402 127q-180 132 -180 415zM442 1487l187 309h190l193 -309h-113l-178 178l-170 -178h-109 z" />
<glyph unicode="&#xdc;" horiz-adv-x="1449" d="M125 524v873h201v-826q0 -112 18 -184q23 -66 66 -106q113 -119 301 -119q132 0 227.5 44t143.5 127q44 77 44 247v817h201v-848q0 -260 -156 -416q-151 -151 -464 -151q-221 0 -402 127q-180 132 -180 415zM440 1638q0 41 28 68t69 27v4q94 -20 94 -99q0 -41 -27 -68.5 t-67 -27.5q-27 0 -49.5 12.5t-35 34.5t-12.5 49zM821 1638q0 40 27.5 67.5t68.5 27.5v4q95 -20 95 -99q0 -27 -12.5 -49t-34 -34.5t-48.5 -12.5q-41 0 -68.5 28t-27.5 68z" />
<glyph unicode="&#xdd;" horiz-adv-x="569" />
<glyph unicode="&#xde;" horiz-adv-x="1044" d="M143 0v1397h201v-303h236q236 -9 335 -123q109 -118 109 -283q0 -163 -115 -278q-113 -113 -356 -113l-209 4v-301h-201zM344 481h227q110 -9 178 49.5t68 165.5v21q-3 69 -59 131q-55 61 -178 61l-236 4v-432z" />
<glyph unicode="&#xdf;" d="M121 0v1059q0 172 108 260q104 92 281 92q179 0 284 -86t105 -252q0 -113 -56 -191.5t-147 -113.5q122 -36 191 -129.5t69 -241.5q0 -189 -102 -303q-100 -112 -266 -112h-29q-2 2 -4 2h-4l-21 3q-53 8 -73 13v178q25 -20 39 -20q2 -2 5 -2h5q12 -4 22 -4h27q95 0 156 67 q59 71 59 182q0 102 -57 189q-53 86 -226 86h-14v168q1 -4 3 -4h9q110 0 169 54t59 159q0 71 -33.5 123t-88.5 77q-37 17 -79 17q-86 0 -150 -51q-59 -53 -59 -187v-1032h-182z" />
<glyph unicode="&#xe0;" horiz-adv-x="874" d="M53 203q0 125 84 180q82 58 185 94q4 0 12 4q6 0 10 4q4 0 12 4q6 0 11 5l161 61v49q0 158 -166 158h-10q-1 0 -3 -1t-3 -1h-20q-147 -20 -254 -150v203q115 121 305 121q153 0 243.5 -78t90.5 -225v-469q0 -27 6.5 -39t27.5 -12q18 0 38.5 10t29.5 16.5t29 22.5v-107 q-18 -14 -28.5 -21.5t-28 -18.5t-34.5 -17t-36 -8q-16 -4 -25 -4h-5q-1 0 -7 -2h-12q-55 0 -95 18q-32 20 -45 72q-112 -90 -247 -90q-80 0 -132.5 37.5t-77.5 100.5q-16 40 -16 83zM178 1339h205l137 -301h-112zM238 236q0 -60 35.5 -95t95.5 -35q56 0 121 45q23 16 38 31 v273l-109 -45q-4 -2 -24 -10t-26 -11t-24 -11.5t-24.5 -13t-21 -14t-21 -17t-16 -19t-13.5 -23t-7.5 -25.5t-3.5 -30z" />
<glyph unicode="&#xe1;" horiz-adv-x="874" d="M53 203q0 125 84 180q82 58 185 94q4 0 12 4q6 0 10 4q4 0 12 4q6 0 11 5l161 61v49q0 158 -166 158h-10q-1 0 -3 -1t-3 -1h-20q-147 -20 -254 -150v203q115 121 305 121q153 0 243.5 -78t90.5 -225v-469q0 -27 6.5 -39t27.5 -12q18 0 38.5 10t29.5 16.5t29 22.5v-107 q-18 -14 -28.5 -21.5t-28 -18.5t-34.5 -17t-36 -8q-16 -4 -25 -4h-5q-1 0 -7 -2h-12q-55 0 -95 18q-32 20 -45 72q-112 -90 -247 -90q-80 0 -132.5 37.5t-77.5 100.5q-16 40 -16 83zM238 236q0 -60 35.5 -95t95.5 -35q56 0 121 45q23 16 38 31v273l-109 -45q-4 -2 -24 -10 t-26 -11t-24 -11.5t-24.5 -13t-21 -14t-21 -17t-16 -19t-13.5 -23t-7.5 -25.5t-3.5 -30zM324 1038l137 301h205l-230 -301h-112z" />
<glyph unicode="&#xe2;" horiz-adv-x="874" d="M53 203q0 125 84 180q82 58 185 94q4 0 12 4q6 0 10 4q4 0 12 4q6 0 11 5l161 61v49q0 158 -166 158h-10q-1 0 -3 -1t-3 -1h-20q-147 -20 -254 -150v203q115 121 305 121q153 0 243.5 -78t90.5 -225v-469q0 -27 6.5 -39t27.5 -12q18 0 38.5 10t29.5 16.5t29 22.5v-107 q-18 -14 -28.5 -21.5t-28 -18.5t-34.5 -17t-36 -8q-16 -4 -25 -4h-5q-1 0 -7 -2h-12q-55 0 -95 18q-32 20 -45 72q-112 -90 -247 -90q-80 0 -132.5 37.5t-77.5 100.5q-16 40 -16 83zM113 1036l186 310h190l193 -310h-113l-178 178l-170 -178h-108zM238 236q0 -60 35.5 -95 t95.5 -35q56 0 121 45q23 16 38 31v273l-109 -45q-4 -2 -24 -10t-26 -11t-24 -11.5t-24.5 -13t-21 -14t-21 -17t-16 -19t-13.5 -23t-7.5 -25.5t-3.5 -30z" />
<glyph unicode="&#xe3;" horiz-adv-x="874" d="M53 203q0 125 84 180q82 58 185 94q4 0 12 4q6 0 10 4q4 0 12 4q6 0 11 5l161 61v49q0 158 -166 158h-10q-1 0 -3 -1t-3 -1h-20q-147 -20 -254 -150v203q115 121 305 121q153 0 243.5 -78t90.5 -225v-469q0 -27 6.5 -39t27.5 -12q18 0 38.5 10t29.5 16.5t29 22.5v-107 q-18 -14 -28.5 -21.5t-28 -18.5t-34.5 -17t-36 -8q-16 -4 -25 -4h-5q-1 0 -7 -2h-12q-55 0 -95 18q-32 20 -45 72q-112 -90 -247 -90q-80 0 -132.5 37.5t-77.5 100.5q-16 40 -16 83zM96 1075q15 170 98 216q29 16 62 16q13 0 20 -1l21 -3q34 -5 45 -9q22 -3 37 -12 q12 -4 18 -4q13 -4 43 -17t54.5 -19.5t50.5 -6.5q23 0 39.5 10.5t24.5 27.5t10 40v4h77q0 -82 -24 -142.5t-73 -87.5q-29 -16 -64 -16q-43 0 -75 9.5t-73 27.5q-13 0 -37.5 11t-25.5 11q-9 0 -26 5.5t-24 6.5q-8 1 -24 1q-63 0 -70 -72zM238 236q0 -60 35.5 -95t95.5 -35 q56 0 121 45q23 16 38 31v273l-109 -45q-4 -2 -24 -10t-26 -11t-24 -11.5t-24.5 -13t-21 -14t-21 -17t-16 -19t-13.5 -23t-7.5 -25.5t-3.5 -30z" />
<glyph unicode="&#xe4;" horiz-adv-x="874" d="M53 203q0 125 84 180q82 58 185 94q4 0 12 4q6 0 10 4q4 0 12 4q6 0 11 5l161 61v49q0 158 -166 158h-10q-1 0 -3 -1t-3 -1h-20q-147 -20 -254 -150v203q115 121 305 121q153 0 243.5 -78t90.5 -225v-469q0 -27 6.5 -39t27.5 -12q18 0 38.5 10t29.5 16.5t29 22.5v-107 q-18 -14 -28.5 -21.5t-28 -18.5t-34.5 -17t-36 -8q-16 -4 -25 -4h-5q-1 0 -7 -2h-12q-55 0 -95 18q-32 20 -45 72q-112 -90 -247 -90q-80 0 -132.5 37.5t-77.5 100.5q-16 40 -16 83zM111 1188q0 41 27.5 67.5t68.5 26.5v4q94 -20 94 -98q0 -41 -26.5 -68.5t-67.5 -27.5 t-68.5 27.5t-27.5 68.5zM238 236q0 -60 35.5 -95t95.5 -35q56 0 121 45q23 16 38 31v273l-109 -45q-4 -2 -24 -10t-26 -11t-24 -11.5t-24.5 -13t-21 -14t-21 -17t-16 -19t-13.5 -23t-7.5 -25.5t-3.5 -30zM492 1188q0 41 27.5 67.5t68.5 26.5v4q94 -20 94 -98 q0 -41 -26.5 -68.5t-67.5 -27.5t-68.5 27.5t-27.5 68.5z" />
<glyph unicode="&#xe5;" horiz-adv-x="874" d="M53 203q0 125 84 180q82 58 185 94q4 0 12 4q6 0 10 4q4 0 12 4q6 0 11 5l161 61v49q0 158 -166 158h-10q-1 0 -3 -1t-3 -1h-20q-147 -20 -254 -150v203q115 121 305 121q153 0 243.5 -78t90.5 -225v-469q0 -27 6.5 -39t27.5 -12q18 0 38.5 10t29.5 16.5t29 22.5v-107 q-18 -14 -28.5 -21.5t-28 -18.5t-34.5 -17t-36 -8q-16 -4 -25 -4h-5q-1 0 -7 -2h-12q-55 0 -95 18q-32 20 -45 72q-112 -90 -247 -90q-80 0 -132.5 37.5t-77.5 100.5q-16 40 -16 83zM207 1221q0 63 33.5 108.5t84.5 67.5q32 14 72 14v4q84 -10 133 -61q58 -55 58 -133 q0 -62 -33.5 -108.5t-84.5 -68.5q-32 -14 -73 -14q-77 0 -135 55q-55 58 -55 136zM238 236q0 -60 35.5 -95t95.5 -35q56 0 121 45q23 16 38 31v273l-109 -45q-4 -2 -24 -10t-26 -11t-24 -11.5t-24.5 -13t-21 -14t-21 -17t-16 -19t-13.5 -23t-7.5 -25.5t-3.5 -30zM285 1221 q0 -24 8.5 -45t23 -36t35.5 -23.5t45 -8.5q49 0 81 32t32 81t-32 80.5t-81 31.5v4q-112 -22 -112 -116z" />
<glyph unicode="&#xe6;" horiz-adv-x="1366" d="M72 213q0 117 94 184q92 68 289 125l18 6q13 0 33 8t31 9v4q0 1 1 3t1 3v33q0 182 -148 182q-53 0 -98 -12.5t-81.5 -37.5t-62.5 -48.5t-57 -59.5v224q126 98 297 98q88 0 160 -32.5t115 -86.5q77 77 186 107q28 12 84 12q149 0 252 -109q98 -110 98 -301v-30l-565 4 q0 -130 44.5 -213.5t133.5 -121.5q52 -22 107 -22h21q8 0 22 2l21 4l22 5q58 15 94 38q46 23 104 68v-178q-57 -51 -141 -76q-114 -22 -168 -22q-108 0 -189 36.5t-126 102.5q-60 -50 -123 -81.5t-144 -48.5q-44 -9 -86 -9q-83 0 -138.5 37t-83.5 101q-17 40 -17 93z M258 250q0 -92 77 -136q21 -12 48 -12h28q20 0 54 17l31 15q20 10 41 24v301q-28 -14 -42 -20q-2 -1 -44 -19.5t-64 -26.5q-57 -26 -96 -65q-33 -33 -33 -78zM741 614v4h363q-12 75 -54 113.5t-124 38.5q-131 0 -185 -156z" />
<glyph unicode="&#xe7;" horiz-adv-x="897" d="M84 438q0 173 70 291t197 171q81 34 188 34q75 0 142 -19l42 -12q18 -6 20 -6q13 -4 36 -15t26 -12v-190l-59 32q-39 22 -97 41q-23 7 -45 9h-6q-4 0 -6 2h-21q-4 0 -6 2h-14q-132 0 -206.5 -86t-74.5 -225q0 -146 82.5 -225.5t229.5 -79.5h30q20 0 41 3t36.5 6.5 t38 11.5t32.5 12t34.5 14.5t30.5 13.5v-176q-19 -14 -51.5 -23.5t-56 -13t-67.5 -8.5q-10 -1 -15 -2q-37 -5 -78 -6h-22l-9 -29q48 -12 79.5 -44.5t31.5 -84.5q0 -95 -65.5 -142t-170.5 -47h-20q-1 0 -5 1.5t-6 1.5h-10q-13 0 -41 4v112q20 -4 31 -4h29q20 0 38.5 2.5 t36 8.5t28 18t10.5 28q0 54 -93 54h-10q-2 0 -2 -2h-14l49 139q-117 23 -197 97.5t-117 186.5q-24 72 -24 156z" />
<glyph unicode="&#xe8;" horiz-adv-x="980" d="M84 467q0 213 119 338q117 129 311 129q178 0 291 -125q108 -130 108 -381l-647 4q41 -280 309 -280q69 0 152 25l31 11l29 13q6 2 23.5 11.5t27.5 12.5q11 10 18 13q21 12 41 24v-172q-1 -2 -3 -4.5t-5 -4.5t-4 -3q-3 -1 -7.5 -4t-7.5 -4q-73 -55 -168 -70 q-64 -18 -172 -18q-213 0 -331 145q-115 148 -115 340zM270 549v4h463q-3 101 -59.5 162t-155.5 61q-110 0 -168.5 -60t-79.5 -167zM272 1339h205l137 -301h-112z" />
<glyph unicode="&#xe9;" horiz-adv-x="980" d="M84 467q0 213 119 338q117 129 311 129q178 0 291 -125q108 -130 108 -381l-647 4q41 -280 309 -280q69 0 152 25l31 11l29 13q6 2 23.5 11.5t27.5 12.5q11 10 18 13q21 12 41 24v-172q-1 -2 -3 -4.5t-5 -4.5t-4 -3q-3 -1 -7.5 -4t-7.5 -4q-73 -55 -168 -70 q-64 -18 -172 -18q-213 0 -331 145q-115 148 -115 340zM270 549v4h463q-3 101 -59.5 162t-155.5 61q-110 0 -168.5 -60t-79.5 -167zM377 1038l137 301h205l-230 -301h-112z" />
<glyph unicode="&#xea;" horiz-adv-x="980" d="M84 467q0 213 119 338q117 129 311 129q178 0 291 -125q108 -130 108 -381l-647 4q41 -280 309 -280q69 0 152 25l31 11l29 13q6 2 23.5 11.5t27.5 12.5q11 10 18 13q21 12 41 24v-172q-1 -2 -3 -4.5t-5 -4.5t-4 -3q-3 -1 -7.5 -4t-7.5 -4q-73 -55 -168 -70 q-64 -18 -172 -18q-213 0 -331 145q-115 148 -115 340zM207 1036l186 310h191l192 -310h-112l-179 178l-170 -178h-108zM270 549v4h463q-3 101 -59.5 162t-155.5 61q-110 0 -168.5 -60t-79.5 -167z" />
<glyph unicode="&#xeb;" horiz-adv-x="980" d="M84 467q0 213 119 338q117 129 311 129q178 0 291 -125q108 -130 108 -381l-647 4q41 -280 309 -280q69 0 152 25l31 11l29 13q6 2 23.5 11.5t27.5 12.5q11 10 18 13q21 12 41 24v-172q-1 -2 -3 -4.5t-5 -4.5t-4 -3q-3 -1 -7.5 -4t-7.5 -4q-73 -55 -168 -70 q-64 -18 -172 -18q-213 0 -331 145q-115 148 -115 340zM205 1188q0 41 27.5 67.5t68.5 26.5v4q94 -20 94 -98q0 -21 -7 -38.5t-19.5 -30.5t-30 -20t-37.5 -7t-38 7.5t-30.5 20t-20 30.5t-7.5 38zM270 549v4h463q-3 101 -59.5 162t-155.5 61q-110 0 -168.5 -60t-79.5 -167z M586 1188q0 27 12.5 48.5t34.5 33.5t49 12v4q94 -20 94 -98q0 -28 -12 -49.5t-33.5 -34t-48.5 -12.5q-41 0 -68.5 27.5t-27.5 68.5z" />
<glyph unicode="&#xec;" horiz-adv-x="448" d="M6 1339h205l137 -301h-112zM133 0v920h182v-920h-182z" />
<glyph unicode="&#xed;" horiz-adv-x="448" d="M111 1038l137 301h205l-230 -301h-112zM133 0v920h182v-920h-182z" />
<glyph unicode="&#xee;" horiz-adv-x="448" d="M-59 1036l186 310h190l193 -310h-113l-178 178l-170 -178h-108zM133 0v920h182v-920h-182z" />
<glyph unicode="&#xef;" horiz-adv-x="448" d="M-57 1188q0 39 28 67q34 27 64 27v4q94 -20 94 -98q0 -41 -26.5 -68.5t-67.5 -27.5q-39 0 -65.5 28t-26.5 68zM133 0v920h182v-920h-182zM319 1188q0 40 28 67t69 27v4q94 -20 94 -98q0 -41 -26.5 -68.5t-67.5 -27.5t-69 27.5t-28 68.5z" />
<glyph unicode="&#xf0;" horiz-adv-x="1153" d="M74 465q0 198 139 334q144 135 346 135q46 0 76 -6q46 -3 96 -25q8 -4 23 -12t25 -13t22 -13.5t20 -16.5l4 8l-18 38q-15 30 -25 46l-30 47l-12 18t-17 24.5t-14 16.5q-11 11 -31.5 35.5t-32.5 36.5l-272 -125l-58 109l232 108q-13 6 -34 20l-34 21q-38 24 -69 37 l125 125l51 -28q60 -34 94 -61l43 -34l248 123l57 -108l-211 -101q121 -148 187 -327q53 -172 53 -304q0 -298 -131 -444q-127 -147 -367 -147q-216 0 -348 135q-137 134 -137 348zM260 469q0 -149 78 -238.5t219 -89.5q143 0 229 86q84 90 84 236q0 105 -52.5 178.5 t-136.5 106.5q-56 22 -124 22q-133 0 -213 -86q-83 -83 -84 -215z" />
<glyph unicode="&#xf1;" d="M125 0v920h182v-121h4q58 62 123 98.5t152 36.5q132 0 221 -92q92 -89 92 -279v-563h-182v569q0 96 -46.5 157.5t-133.5 61.5q-34 0 -50 -6q-11 -1 -23 -6l-22 -8q-31 -14 -65 -45l-34 -31q-20 -18 -36 -37v-655h-182zM213 1075q15 170 97 216q29 16 63 16q13 0 20 -1 l21 -3q34 -5 45 -9q22 -3 37 -12q12 -4 18 -4q12 -4 42.5 -17t55 -19.5t50.5 -6.5q34 0 52 21t21 57v4h78q0 -82 -24 -142.5t-73 -87.5q-29 -16 -65 -16q-23 0 -43 2.5t-39 8.5t-32 11.5t-33 14.5q-14 0 -37 10.5t-27 11.5q-5 0 -12 1.5t-12.5 3.5t-12.5 4t-12 3q-8 1 -24 1 q-63 0 -70 -72z" />
<glyph unicode="&#xf2;" horiz-adv-x="1130" d="M74 465q0 198 139 334q144 135 346 135v4q222 -9 356 -137q142 -130 142 -336q0 -216 -139 -352q-134 -131 -359 -131q-216 0 -348 135q-137 134 -137 348zM260 465q0 -147 78.5 -235.5t218.5 -88.5q143 0 229 86q84 90 84 236q0 105 -52.5 178.5t-136.5 106.5 q-56 22 -124 22v4q-138 -10 -213 -90q-84 -84 -84 -219zM348 1339h205l137 -301h-112z" />
<glyph unicode="&#xf3;" horiz-adv-x="1130" d="M74 465q0 198 139 334q144 135 346 135v4q222 -9 356 -137q142 -130 142 -336q0 -216 -139 -352q-134 -131 -359 -131q-216 0 -348 135q-137 134 -137 348zM260 465q0 -147 78.5 -235.5t218.5 -88.5q143 0 229 86q84 90 84 236q0 105 -52.5 178.5t-136.5 106.5 q-56 22 -124 22v4q-138 -10 -213 -90q-84 -84 -84 -219zM453 1038l137 301h205l-230 -301h-112z" />
<glyph unicode="&#xf4;" horiz-adv-x="1130" d="M74 465q0 198 139 334q144 135 346 135v4q222 -9 356 -137q142 -130 142 -336q0 -216 -139 -352q-134 -131 -359 -131q-216 0 -348 135q-137 134 -137 348zM260 465q0 -147 78.5 -235.5t218.5 -88.5q143 0 229 86q84 90 84 236q0 105 -52.5 178.5t-136.5 106.5 q-56 22 -124 22v4q-138 -10 -213 -90q-84 -84 -84 -219zM283 1036l186 310h190l193 -310h-113l-178 178l-170 -178h-108z" />
<glyph unicode="&#xf5;" horiz-adv-x="1130" d="M74 465q0 198 139 334q144 135 346 135v4q222 -9 356 -137q142 -130 142 -336q0 -216 -139 -352q-134 -131 -359 -131q-216 0 -348 135q-137 134 -137 348zM260 465q0 -147 78.5 -235.5t218.5 -88.5q143 0 229 86q84 90 84 236q0 105 -52.5 178.5t-136.5 106.5 q-56 22 -124 22v4q-138 -10 -213 -90q-84 -84 -84 -219zM266 1075q15 170 98 216q29 16 62 16q13 0 20 -1l21 -3q34 -5 45 -9q22 -3 37 -12q12 -4 18 -4q13 -4 43 -17t54.5 -19.5t50.5 -6.5q34 0 52 21t21 57v4h78q0 -82 -24 -142.5t-73 -87.5q-29 -16 -64 -16 q-43 0 -75 9.5t-73 27.5q-13 0 -37.5 11t-25.5 11q-9 0 -26 5.5t-24 6.5q-8 1 -24 1q-63 0 -70 -72z" />
<glyph unicode="&#xf6;" horiz-adv-x="1130" d="M74 465q0 198 139 334q144 135 346 135v4q222 -9 356 -137q142 -130 142 -336q0 -216 -139 -352q-134 -131 -359 -131q-216 0 -348 135q-137 134 -137 348zM260 465q0 -147 78.5 -235.5t218.5 -88.5q143 0 229 86q84 90 84 236q0 105 -52.5 178.5t-136.5 106.5 q-56 22 -124 22v4q-138 -10 -213 -90q-84 -84 -84 -219zM281 1188q0 41 27.5 67.5t68.5 26.5v4q94 -20 94 -98q0 -41 -26.5 -68.5t-67.5 -27.5t-68.5 27.5t-27.5 68.5zM662 1188q0 41 27.5 67.5t68.5 26.5v4q94 -20 94 -98q0 -41 -26.5 -68.5t-67.5 -27.5t-68.5 27.5 t-27.5 68.5z" />
<glyph unicode="&#xf7;" horiz-adv-x="569" />
<glyph unicode="&#xf8;" horiz-adv-x="1130" d="M74 465q0 198 139 334q144 135 346 135q167 0 287 -80l96 115l68 -62l-90 -104q137 -149 137 -338q0 -216 -139 -352q-134 -131 -359 -131q-157 0 -276 73v4l-115 -135l-68 62l113 131q-65 56 -102 145.5t-37 202.5zM260 430q0 -7 6 -33l8 -41q10 -48 54 -108v4l407 475 q-2 -2 -3 -2h-1q-3 0 -12 5t-10 6q-4 2 -12.5 5.5t-14.5 6t-14 5t-15 3.5q-49 14 -96 14q-133 0 -213 -86q-84 -84 -84 -219v-35zM395 190q54 -49 162 -49q143 0 229 86q84 90 84 236q0 13 -1 21l-3 24q-4 16 -4 24q-10 39 -16 53l-12 27q-17 34 -31 50v4z" />
<glyph unicode="&#xf9;" d="M123 344v576h182v-584q0 -207 189 -207q131 0 219 129v662h182v-920h-182v117q-78 -98 -174 -117q-5 -1 -13 -3.5t-14 -4t-13.5 -3t-14 -3t-14 -2.5t-15 -1.5t-15.5 -0.5q-140 0 -229 92q-88 91 -88 270zM295 1339h205l137 -301h-113z" />
<glyph unicode="&#xfa;" d="M123 344v576h182v-584q0 -207 189 -207q131 0 219 129v662h182v-920h-182v117q-78 -98 -174 -117q-5 -1 -13 -3.5t-14 -4t-13.5 -3t-14 -3t-14 -2.5t-15 -1.5t-15.5 -0.5q-140 0 -229 92q-88 91 -88 270zM399 1038l138 301h204l-229 -301h-113z" />
<glyph unicode="&#xfb;" d="M123 344v576h182v-584q0 -207 189 -207q131 0 219 129v662h182v-920h-182v117q-78 -98 -174 -117q-5 -1 -13 -3.5t-14 -4t-13.5 -3t-14 -3t-14 -2.5t-15 -1.5t-15.5 -0.5q-140 0 -229 92q-88 91 -88 270zM229 1036l187 310h190l193 -310h-113l-178 178l-170 -178h-109z " />
<glyph unicode="&#xfc;" d="M123 344v576h182v-584q0 -207 189 -207q131 0 219 129v662h182v-920h-182v117q-78 -98 -174 -117q-5 -1 -13 -3.5t-14 -4t-13.5 -3t-14 -3t-14 -2.5t-15 -1.5t-15.5 -0.5q-140 0 -229 92q-88 91 -88 270zM227 1188q0 40 28 67t69 27v4q94 -20 94 -98q0 -41 -26.5 -68.5 t-67.5 -27.5q-27 0 -49.5 12.5t-35 34.5t-12.5 49zM608 1188q0 41 28 67.5t69 26.5v4q94 -20 94 -98q0 -41 -26.5 -68.5t-67.5 -27.5t-69 27.5t-28 68.5z" />
<glyph unicode="&#xfd;" horiz-adv-x="569" />
<glyph unicode="&#xfe;" d="M117 -471v1868h182v-477h133q518 -18 518 -471q0 -207 -131 -338q-129 -129 -336 -129h-28l-6 2h-5q-65 5 -145 34v-489h-182zM299 186q37 -26 128 -44q5 -1 15 -1h29q101 0 170 51.5t101 135.5q22 58 22 123q0 146 -77 223.5t-222 77.5l-166 4v-570z" />
<glyph unicode="&#xff;" horiz-adv-x="897" d="M0 920h207l248 -519l237 519h205l-651 -1391h-203l313 668zM164 1188q0 40 27.5 67t68.5 27v4q94 -20 94 -98q0 -42 -26.5 -69t-67.5 -27t-68.5 27.5t-27.5 68.5zM545 1188q0 41 27.5 67.5t68.5 26.5v4q94 -20 94 -98q0 -42 -26.5 -69t-67.5 -27t-68.5 27.5t-27.5 68.5z " />
<glyph unicode="&#x152;" horiz-adv-x="1878" d="M96 692q0 311 219 506q225 195 572 195l905 4v-180h-571v-420h551v-181h-551v-436h594v-180h-910q-347 0 -575 184q-234 189 -234 508zM303 694q0 -121 43.5 -211.5t122.5 -163.5q164 -149 412 -149l139 4v1049h-117q-297 -9 -448 -166q-72 -75 -112 -162.5t-40 -200.5z " />
<glyph unicode="&#x153;" horiz-adv-x="1705" d="M72 434q0 222 139 361t362 139q92 0 167 -26t124.5 -66t96.5 -99q117 191 329 191q135 0 238 -103q102 -99 102 -305v-32l-573 4v-23q-2 -2 -2 -5v-15q0 -108 46.5 -184t127.5 -109q51 -21 112 -21q26 0 66 4l33 9q103 28 194 106v-180q-63 -49 -142.5 -73.5 t-188.5 -24.5q-235 0 -342 178q-148 -178 -400 -178q-206 0 -346 131q-143 134 -143 321zM258 442q0 -99 53 -171.5t134 -106.5q55 -23 118 -23q108 0 179 52.5t104 140.5q20 54 20 127q0 128 -86 217q-42 45 -91.5 68.5t-119.5 23.5v4q-73 -5 -131.5 -31.5t-97.5 -70 t-60 -102.5q-22 -61 -22 -128zM1075 614v4h375q-20 152 -170 152q-157 0 -205 -156z" />
<glyph unicode="&#x178;" horiz-adv-x="1236" d="M0 1397h242l374 -482l379 482h242l-518 -660v-737h-201v739zM334 1638q0 41 27.5 68t68.5 27v4q94 -20 94 -99q0 -41 -26.5 -68.5t-67.5 -27.5t-68.5 27.5t-27.5 68.5zM715 1638q0 41 27.5 68t68.5 27v4q94 -20 94 -99q0 -41 -26.5 -68.5t-67.5 -27.5t-68.5 27.5 t-27.5 68.5z" />
<glyph unicode="&#x2c6;" horiz-adv-x="681" d="M41 1075q15 170 97 216q29 16 63 16q13 0 20 -1l21 -3q34 -5 45 -9q22 -3 37 -12q12 -4 18 -4q12 -4 42 -17t54.5 -19.5t50.5 -6.5q35 0 53 21t21 57v4h78q0 -82 -24 -142.5t-73 -87.5q-29 -16 -65 -16q-30 0 -58 6t-45 12.5t-44 18.5q-14 0 -37 10.5t-27 11.5 q-8 0 -25 5.5t-24 6.5q-8 1 -24 1q-63 0 -70 -72z" />
<glyph unicode="&#x2dc;" horiz-adv-x="681" d="M57 1036l187 310h190l193 -310h-113l-178 178l-170 -178h-109z" />
<glyph unicode="&#x2000;" horiz-adv-x="933" />
<glyph unicode="&#x2001;" horiz-adv-x="1866" />
<glyph unicode="&#x2002;" horiz-adv-x="933" />
<glyph unicode="&#x2003;" horiz-adv-x="1866" />
<glyph unicode="&#x2004;" horiz-adv-x="622" />
<glyph unicode="&#x2005;" horiz-adv-x="466" />
<glyph unicode="&#x2006;" horiz-adv-x="311" />
<glyph unicode="&#x2007;" horiz-adv-x="311" />
<glyph unicode="&#x2008;" horiz-adv-x="233" />
<glyph unicode="&#x2009;" horiz-adv-x="373" />
<glyph unicode="&#x200a;" horiz-adv-x="103" />
<glyph unicode="&#x2010;" horiz-adv-x="661" d="M82 356v191h498v-191h-498z" />
<glyph unicode="&#x2011;" horiz-adv-x="661" d="M82 356v191h498v-191h-498z" />
<glyph unicode="&#x2012;" horiz-adv-x="661" d="M82 356v191h498v-191h-498z" />
<glyph unicode="&#x2013;" d="M-18 453v131h1060v-131h-1060z" />
<glyph unicode="&#x2014;" horiz-adv-x="2048" d="M-18 453v131h2084v-131h-2084z" />
<glyph unicode="&#x2018;" horiz-adv-x="448" d="M94 1098q0 124 63.5 203t170.5 110v-35q-4 -6 -10 -12t-12 -11.5t-10 -11.5q-1 -2 -7 -8.5t-8 -11.5q-23 -28 -31 -64q-6 -60 -6 -65v-14q0 -2 2 -4v-21q48 -3 78 -36.5t30 -84.5q0 -59 -32.5 -92t-90.5 -33q-46 0 -78 28.5t-45.5 70t-13.5 92.5z" />
<glyph unicode="&#x2019;" horiz-adv-x="448" d="M94 1286q0 59 32.5 92t90.5 33q67 0 102 -55.5t35 -134.5q0 -125 -63 -204t-170 -110v43q3 0 5 1.5t4.5 3.5t4.5 3q2 5 6.5 9t10 8.5t7.5 7.5q35 47 38 76q8 29 8 67v19q-2 2 -2 4v16q-109 20 -109 121z" />
<glyph unicode="&#x201a;" horiz-adv-x="569" />
<glyph unicode="&#x201c;" horiz-adv-x="874" d="M84 1098q0 125 63 203.5t170 109.5v-35q-5 -7 -15.5 -17t-15.5 -18q-2 -3 -8 -8.5t-8 -11.5q-21 -26 -30 -64q0 -2 -3.5 -27.5t-3.5 -37.5v-14q0 -1 3 -4v-21q48 -3 78 -37t30 -84q0 -59 -32.5 -92t-90.5 -33q-46 0 -78 28.5t-45.5 70t-13.5 92.5zM530 1098q0 84 31 149 t82 104.5t121 59.5v-35q-5 -7 -16 -17t-16 -18q-1 -2 -7 -8.5t-8 -11.5q-23 -28 -31 -64q-6 -60 -6 -65v-14q0 -2 2 -4v-21q31 -2 56 -18t39 -43t14 -60q0 -58 -33 -91.5t-90 -33.5q-34 0 -61.5 16t-43.5 43.5t-24.5 61t-8.5 70.5z" />
<glyph unicode="&#x201d;" horiz-adv-x="874" d="M84 1286q0 59 32.5 92t90.5 33q67 0 102 -55.5t35 -134.5q0 -84 -30.5 -149t-81.5 -105t-121 -60v43q4 0 8 3.5t6 4.5q2 6 11.5 14.5t11.5 10.5q35 47 38 76q9 33 9 67v19q-2 2 -2 4v16q-109 20 -109 121zM530 1286q0 58 33 91.5t90 33.5q67 0 102.5 -56t35.5 -134 q0 -124 -63.5 -203.5t-170.5 -110.5v43q4 0 8 3.5t6 4.5q1 4 6 8.5t10.5 9t7.5 7.5q35 47 38 76q8 29 8 67v19q-2 2 -2 4v16q-50 9 -79.5 39t-29.5 82z" />
<glyph unicode="&#x201e;" horiz-adv-x="874" d="M104 139q0 58 33 91.5t90 33.5q67 0 102.5 -56t35.5 -134q0 -121 -64 -200t-170 -110v39q5 2 11.5 9t9.5 9q19 13 26 34q37 46 37 129v16q-2 0 -2 2v16q-50 9 -79.5 39t-29.5 82zM553 139q0 59 32.5 92t90.5 33q67 0 102 -55.5t35 -134.5q0 -122 -63.5 -200.5 t-169.5 -109.5v39q5 2 11 9t9 9q4 3 9 10t7 9q9 9 11 15q37 46 37 129v16q-3 0 -3 2v16q-108 20 -108 121z" />
<glyph unicode="&#x2022;" horiz-adv-x="724" d="M109 694q0 105 73 178q76 76 180 76v4q84 -7 144.5 -49.5t90.5 -110.5q19 -42 19 -98q0 -83 -44.5 -145t-111.5 -90q-46 -19 -98 -19q-84 0 -146.5 44.5t-88.5 112.5q-18 47 -18 97z" />
<glyph unicode="&#x2026;" horiz-adv-x="2048" d="M217 100q0 54 34.5 88.5t88.5 34.5v4q54 -10 88.5 -41.5t34.5 -85.5q0 -76 -77 -109q-21 -9 -46 -9q-55 0 -89 32t-34 86zM901 100q0 54 34.5 88.5t88.5 34.5v4q54 -10 88.5 -41.5t34.5 -85.5q0 -76 -77 -109q-21 -9 -46 -9q-55 0 -89 32t-34 86zM1585 100 q0 54 34.5 88.5t88.5 34.5v4q54 -10 88.5 -41.5t34.5 -85.5q0 -76 -77 -109q-21 -9 -46 -9q-27 0 -50 8t-39 23t-25 37.5t-9 49.5z" />
<glyph unicode="&#x202f;" horiz-adv-x="373" />
<glyph unicode="&#x2039;" horiz-adv-x="641" d="M74 461l301 461h180l-303 -461l303 -461h-180z" />
<glyph unicode="&#x203a;" horiz-adv-x="641" d="M86 0l303 461l-303 461h180l301 -461l-301 -461h-180z" />
<glyph unicode="&#x205f;" horiz-adv-x="466" />
<glyph unicode="&#x2122;" horiz-adv-x="2048" d="M225 1346v120h666v-120h-266v-695h-136v695h-264zM983 651v815h201l202 -651h5l196 651h197v-815h-125v684h-4l-205 -684h-123l-215 695h-4v-695h-125z" />
<glyph unicode="&#xe000;" horiz-adv-x="921" d="M0 0v922h922v-922h-922z" />
</font>
</defs>
</svg>
