<?xml version="1.0" standalone="no"?>
<!DOCTYPE svg PUBLIC "-//W3C//DTD SVG 1.1//EN" "http://www.w3.org/Graphics/SVG/1.1/DTD/svg11.dtd" >
<svg xmlns="http://www.w3.org/2000/svg">
<metadata>Generated by IcoMoon</metadata>
<defs>
<font id="icomoon" horiz-adv-x="512">
<font-face units-per-em="512" ascent="480" descent="-32" />
<missing-glyph horiz-adv-x="512" />
<glyph unicode="&#x20;" horiz-adv-x="256" d="" />
<glyph unicode="&#xe600;" glyph-name="background" d="M442.701 224c0-103.112-83.589-186.701-186.701-186.701s-186.701 83.589-186.701 186.701c0 103.112 83.589 186.701 186.701 186.701s186.701-83.589 186.701-186.701z" />
<glyph unicode="&#xe601;" glyph-name="arrow_left" d="M334 96.992l-152 126 152 127.008v-253.008z" />
<glyph unicode="&#xe602;" glyph-name="arrow-right" d="M182 350l152-127.008-152-126v253.008z" />
<glyph unicode="&#xe603;" glyph-name="arrow-up" d="M344.217 183.846l-88.205 95.68-88.231-95.68 10.24-15.373 77.99 87.13 77.952-87.13 10.253 15.373z" />
<glyph unicode="&#xe604;" glyph-name="arrow-down" d="M333.965 279.526l-77.952-87.13-77.99 87.13-10.24-15.373 88.231-95.68 88.205 95.68-10.253 15.373z" />
<glyph unicode="&#xe608;" glyph-name="dp_text_tool" d="M140.16 292.621h10.445c2.803 8.154 7.194 16.858 13.299 26.151 6.119 9.28 11.738 14.272 16.922 14.989 2.867 0.359 6.336 0.653 10.547 0.96 4.198 0.256 7.821 0.397 10.803 0.397h6.31v-150.413c0-3.328-0.601-6.144-1.754-8.601-1.152-2.406-3.469-4.327-7.001-5.773-1.677-0.678-4.889-1.28-9.549-1.779-4.697-0.474-8.32-0.87-10.931-1.127v-10.496h105.984v10.496c-3.021 0.32-6.733 0.947-11.021 1.805-4.339 0.793-7.539 1.625-9.6 2.445-3.392 1.447-5.658 3.379-6.835 5.849-1.152 2.419-1.753 5.248-1.753 8.525v149.069h6.285c3.059 0 6.643-0.141 10.854-0.397 4.147-0.294 7.693-0.601 10.547-0.96 5.146-0.717 10.777-5.709 16.896-14.989 6.106-9.293 10.496-17.984 13.274-26.151h10.483v54.413h-184.205v-54.413zM395.123 191.104v163.738c14.528 4.173 25.241 17.433 25.241 33.305 0 19.226-15.642 34.791-34.829 34.791-16.192 0-29.632-11.098-33.562-26.074h-240.038c-3.879 14.951-17.357 26.074-33.575 26.074-19.174 0-34.791-15.577-34.791-34.791 0-15.577 10.317-28.57 24.384-33.037v-211.75c-14.080-4.505-24.384-17.498-24.384-33.050 0-19.2 15.629-34.829 34.803-34.829 15.782 0 28.954 10.599 33.229 24.947h190.566c4.147-42.253 39.373-75.353 82.726-75.353 46.093 0 83.533 37.401 83.533 83.52 0 42.599-32.064 77.351-73.305 82.509zM112.307 117.824c-2.957 13.351-13.543 23.846-26.944 26.573v209.664c13.031 2.637 23.296 12.633 26.611 25.433h240.013c3.251-12.505 13.12-22.233 25.767-25.139v-162.97c-39.642-3.405-71.079-34.176-75.481-73.498l-189.965-0.064zM445.209 96.998h-48.717v-48.781h-23.219v48.781h-48.704v23.181h48.704v48.755h23.219v-48.755h48.717v-23.181z" />
<glyph unicode="&#xe610;" glyph-name="next" d="M181.008 332h70l81.008-110-81.008-110h-70l83.008 110z" />
<glyph unicode="&#xe611;" glyph-name="previous" d="M332 112h-70l-81.008 110 81.008 110h70l-83.008-110z" />
<glyph unicode="&#xe612;" glyph-name="print" d="M130.905 275.584c-5.197 0-6.912 1.741-6.349 6.349 0.576 1.741 1.741 4.032 3.469 4.608 0.589 0 5.197 1.152 14.413 4.608 9.229 3.469 17.869 6.912 27.097 9.817 9.229 2.88 15.001 4.032 17.305 4.032h13.261v44.39h111.833v-44.39h13.837c2.304 0 8.064-1.165 16.717-4.032 8.666-2.905 17.882-6.349 27.098-9.817 9.229-3.469 13.837-4.608 14.425-4.608 3.456-1.741 4.608-4.608 3.456-8.077-0.589-1.728-2.906-2.893-5.76-2.893l-250.803 0.013zM111.296 241.575c0 8.077 8.653 17.305 16.73 17.305h256.525c8.089 0 16.154-9.229 16.154-17.305v-51.303c0-8.089-8.064-17.882-16.154-17.882h-29.389l13.261-73.792h-224.832l13.248 73.792h-28.813c-8.077 0-16.73 9.805-16.73 17.882v51.303zM173.555 128.013h164.864l-20.16 95.705h-124.531l-20.173-95.706z" />
<glyph unicode="&#xe613;" glyph-name="glossary" d="M417.575 300.992c-6.477 0.947-12.979 1.664-19.469 2.483 2.202-1.831 4.327-3.699 6.349-5.735 0-43.84 0-112.935 0-156.749-37.555 38.221-108.749 38.246-146.419 0.115 0-0.038 0-0.077 0-0.115-0.026 0.026-0.051 0.038-0.051 0.064-0.026-0.026-0.051-0.038-0.077-0.064 0 0.038 0 0.077 0 0.115-37.606 38.131-108.8 38.118-146.329-0.115 0 43.815 0 112.909 0 156.749 1.997 2.035 4.147 3.917 6.323 5.734-6.489-0.819-12.992-1.536-19.469-2.483-7.014-1.011-12.736-7.706-12.736-14.733 0-50.855 0-117.005 0-167.834 0-7.040 5.722-11.891 12.736-10.867 114.023 16.743 205.107 16.743 319.142 0 7.002-1.024 12.723 3.827 12.723 10.867 0 50.841 0 116.992 0 167.833 0 7.027-5.721 13.721-12.723 14.733zM257.959 310.72c-32.218 32.755-90.547 32.729-122.739-0.038 0-37.607 0-90.458 0-128.026 32.192 32.768 90.445 26.394 122.688-6.298 0-0.026 0-0.064 0-0.103 0.026 0.026 0.026 0.038 0.051 0.064 0.026-0.026 0.026-0.038 0.051-0.064 0 0.038 0 0.077 0 0.103 32.32 32.691 90.599 39.065 122.765 6.298 0 37.581 0 90.432 0 128.026-32.205 32.781-90.522 32.793-122.816 0.038z" />
<glyph unicode="&#xe614;" glyph-name="checkmark-2" d="M406 303l-197-196-103 102 38 38 65-65 159 159z" />
<glyph unicode="&#xe620;" glyph-name="vd_play" d="M164 375l184-153-184-152v305z" />
<glyph unicode="&#xe621;" glyph-name="vd_pause" d="M149 352h79v-259h-79v259zM289 352h80v-259h-80v259z" />
<glyph unicode="&#xe622;" glyph-name="vd_volume" d="M106 288h81l64 66v-264l-62 64h-83v134zM298 288c14-18 23-40 23-65 0-24-9-46-23-64l-18 18c10 13 15 29 15 46s-6 34-16 47zM330 319c22-26 35-60 35-96s-13-69-35-95l-18 18c17 21 27 48 27 77s-10 57-27 78zM361 349c30-34 48-78 48-126s-17-92-47-125l-18 18c25 29 40 66 40 107s-16 79-41 108z" />
<glyph unicode="&#xe623;" glyph-name="vd_volume_off" d="M116 293h83l68 70v-279l-66 69-85-1v141zM397 269v-18l-33-32 33-33v-18h-18l-33 33-32-33h-19v18l33 33-33 32v18h19l32-32 33 32h18z" />
<glyph unicode="&#xe624;" glyph-name="vd_close_caption" d="M202 252c0 29-3 42-19 42-19 0-20-17-20-70 0-60 1-75 21-75 17 0 20 20 20 51h46v-7c0-43-12-76-71-76-61 0-65 45-65 106 0 52 2 103 69 103 42 0 65-18 65-65v-9h-46zM353 252c0 29-3 42-19 42-19 0-20-17-20-70 0-60 1-75 21-75 17 0 20 20 20 51h46v-7c0-43-12-76-71-76-61 0-65 45-65 106 0 52 3 103 70 103 42 0 64-18 64-65v-9h-46z" />
<glyph unicode="&#xe625;" glyph-name="vd_close_caption_off" d="M393 55h-268c-42 0-77 35-77 77v179c0 42 35 77 77 77h268c42 0 77-35 77-77v-179c0-42-35-77-77-77zM200 191c0-31-3-51-20-51-20 0-22 15-22 75 0 53 2 71 21 71 16 0 19-13 19-42h45v8c0 47-22 66-64 66-67 0-70-52-70-104 0-61 4-105 65-105 59 0 71 32 71 75v7h-45zM353 191c0-31-3-51-20-51-20 0-21 15-21 75 0 53 1 71 20 71 16 0 19-13 19-42h46v8c0 47-22 66-64 66-67 0-70-52-70-104 0-61 4-105 65-105 59 0 71 32 71 75v7h-46z" />
<glyph unicode="&#xe626;" glyph-name="vd_stop" d="M316.634 345.255h-126.246l63.194-98.291 63.053 98.291zM232.474 217.664h42.099v-112.166h-42.099v112.166z" />
<glyph unicode="&#xe627;" glyph-name="vd_stop_off" d="M358.118 409.856h-209.203c-23.475 0-42.547-19.059-42.547-42.56v-284.403c0-23.539 19.072-42.56 42.547-42.56h209.191c23.539 0 42.56 19.021 42.56 42.56v284.403c0.013 23.501-19.021 42.56-42.547 42.56zM274.791 103.897h-42.535v113.382h42.535v-113.382zM253.607 246.938l-63.898 99.379h127.629l-63.731-99.379z" />
<glyph unicode="&#xe628;" glyph-name="vd_fullscreen" d="M371 243v-127c0-20-15-36-35-36h-183c-20 0-36 16-36 36v183c0 20 16 35 36 35h130l-31-31h-104v-192h192v102zM297 368h112v-112l-39 39-121-121-34 35 121 121c-13 13-26 25-39 38z" />
<glyph unicode="&#xe629;" glyph-name="vd_exit_fullscreen" d="M381 259v-128c0-20-15-36-35-36h-183c-20 0-36 16-36 36v183c0 20 16 36 36 36h130l-31-31h-104v-193h192v102zM304 158h-111v111l38-38 121 121 35-35-121-121z" />
<glyph unicode="&#xe630;" glyph-name="fc_next" d="M181 332h70l81-110-81-110h-70l83 110z" />
<glyph unicode="&#xe631;" glyph-name="fc_previous" d="M332 112h-70l-81 110 81 110h70l-83-110z" />
<glyph unicode="&#xe632;" glyph-name="fc_menu" d="M152.013 161.408c3.353 0 6.042-2.688 6.042-6.055v-12.762c0-3.353-2.688-6.041-6.042-6.041h-12.762c-3.367 0-6.029 2.688-6.029 6.041v12.762c0 3.366 2.662 6.055 6.029 6.055h12.762zM152.013 210.406c3.353 0 6.042-2.688 6.042-6.041v-12.083c0-3.379-2.688-6.707-6.042-6.707h-12.762c-3.367 0-6.029 3.341-6.029 6.707v12.083c0 3.353 2.662 6.041 6.029 6.041h12.762zM152.013 259.379c3.353 0 6.042-2.675 6.042-6.067v-12.058c0-3.367-2.688-6.054-6.042-6.054h-12.762c-3.367 0-6.029 2.688-6.029 6.054v12.058c0 3.392 2.662 6.067 6.029 6.067h12.762zM372.749 161.408c3.341 0 6.016-2.688 6.016-6.055v-12.762c0-3.353-2.675-6.041-6.016-6.041h-184.525c-3.367 0-6.029 2.688-6.029 6.041v12.762c0 3.366 2.662 6.055 6.029 6.055h184.525zM372.749 210.406c3.341 0 6.016-2.688 6.016-6.041v-12.083c0-3.379-2.675-6.707-6.016-6.707h-184.525c-3.367 0-6.029 3.341-6.029 6.707v12.083c0 3.353 2.662 6.041 6.029 6.041h184.525zM372.749 259.379c3.341 0 6.016-2.675 6.016-6.067v-12.058c0-3.367-2.675-6.054-6.016-6.054h-184.525c-3.367 0-6.029 2.688-6.029 6.054v12.058c0 3.392 2.662 6.067 6.029 6.067h184.525zM396.902 112.409c3.353 0 6.041 2.688 6.041 6.055v159.68c0 3.366-2.688 6.054-6.041 6.054h-281.805c-3.367 0-6.055-2.675-6.055-6.054v-159.693c0-3.366 2.688-6.055 6.055-6.055h281.805zM396.902 357.337c16.781 0 30.848-13.427 30.848-30.208v-208.666c0-16.793-14.080-30.861-30.848-30.861h-281.805c-16.768 0-30.874 14.080-30.874 30.861v208.653c0 16.793 14.118 30.195 30.874 30.195l281.805 0.025z" />
<glyph unicode="&#xe633;" glyph-name="fc_edit" d="M187.725 112.55l15.923 15.923-41.037 41.024-15.936-15.911v-18.381h22.669v-22.669h18.381zM279.577 274.867c0 2.432-1.817 4.288-4.262 4.288-1.229 0-1.843-0.614-2.445-1.229l-94.951-94.912c-0.614-0.653-1.216-1.869-1.216-3.072 0-2.457 1.216-3.687 3.661-3.687 1.216 0 2.458 0.615 3.085 1.229l94.925 94.31c0.615 0.601 1.203 1.817 1.203 3.072zM269.824 308.531l72.87-72.896-145.767-145.165h-72.269v72.256l145.165 145.805zM389.235 292.006c0-6.131-1.83-11.635-6.131-15.936l-29.427-28.787-72.281 72.281 28.8 29.389c4.275 4.288 9.805 6.144 15.936 6.144s11.623-1.856 15.897-6.131l41.037-41.037c4.352-4.301 6.183-9.817 6.17-15.923v0z" />
<glyph unicode="&#xe634;" glyph-name="fc_settings" d="M198.822 178.265c24.883 0 45.747 20.839 45.747 45.747 0 24.883-20.864 45.747-45.747 45.747-24.896 0-46.439-20.864-46.439-45.747-0.013-24.909 21.517-45.747 46.439-45.747zM359.654 108.915c12.787 0 22.873 10.099 22.873 22.899 0 12.096-10.752 23.552-22.873 23.552-12.109 0-23.565-11.456-23.565-23.552 0.026-12.8 10.777-22.899 23.565-22.899zM359.654 292.659c12.787 0 22.873 10.752 22.873 23.565 0 12.096-10.752 22.873-22.873 22.873-12.109 0-23.565-10.752-23.565-22.873 0.026-12.787 10.777-23.565 23.565-23.565zM313.216 240.167v-32.985c0-2.035-2.010-5.376-4.007-5.376l-27.61-4.032c-1.344-4.019-3.366-9.421-6.041-14.144 4.019-6.055 9.408-12.096 16.154-20.185 0.678-1.331 1.344-2.701 1.344-4.007 0-1.37-0.691-2.701-1.344-3.392-2.714-3.353-23.565-26.918-28.954-26.918-1.344 0-2.035 0.691-3.379 1.357l-20.864 16.154c-4.71-2.010-8.755-4.032-13.453-5.389-1.344-12.787-3.379-22.195-4.723-27.584-0.679-2.688-2.688-4.723-5.376-4.723h-32.986c-2.701 0-5.376 2.048-5.376 4.723l-4.032 27.584c-4.032 1.344-8.755 2.701-13.453 5.389l-21.529-16.154c-0.679-0.678-2.035-1.357-3.379-1.357s-2.701 1.357-4.032 2.035c-17.498 16.154-25.575 24.896-25.575 28.275 0 1.331 0.678 2.022 1.344 3.366 2.688 3.392 12.8 17.51 15.475 20.877-2.688 5.376-4.723 10.099-6.055 14.822l-27.609 4.007c-2.701 0-4.032 2.688-4.032 5.389v32.973c0 2.035 2.010 5.376 4.032 5.376l27.609 4.032c1.331 4.032 3.379 9.433 6.055 14.144-4.045 6.054-9.421 12.096-16.154 20.173-0.678 1.357-1.331 2.701-1.331 4.032 0 1.344 0.678 2.701 1.331 3.392 2.701 3.367 23.565 26.906 28.953 26.906 1.344 0 2.688-0.679 4.032-1.331l20.198-16.154c4.032 2.022 8.768 4.019 14.131 5.376 1.344 12.787 2.701 22.208 4.032 27.597 0.679 2.688 2.701 4.711 5.376 4.711h32.986c2.701 0 5.376-2.035 5.376-4.711l4.723-27.597c4.032-1.357 8.755-2.701 13.465-5.376l20.864 16.154c0.678 0.678 2.035 1.331 3.379 1.331s2.714-1.331 4.032-2.022c17.51-16.154 25.575-24.909 25.575-28.275 0-1.344 0-2.022-0.678-3.367-2.714-3.379-13.466-16.832-16.154-20.864 2.688-6.055 4.685-10.765 6.041-14.822l27.61-4.019c1.997-0.691 4.007-2.701 4.007-5.389zM336.115 198.438c2.688 0 16.819-19.507 18.163-20.864 2.701 0 4.019 0.691 5.389 0.691 1.344 0 2.688-0.691 5.376-0.691 6.080 8.755 11.456 15.475 16.154 20.185l1.344 0.678c0.691 0 8.077-4.723 22.221-12.774 0.666-0.704 0.666-0.704 0.666-1.357 0-2.688-3.366-11.443-9.408-24.896 2.010-2.701 4.032-6.080 5.389-9.433 17.485-2.022 26.918-3.366 26.918-5.389v-24.87c0-2.035-9.433-3.392-26.918-5.401-1.344-3.366-3.379-6.707-5.389-9.408 6.055-13.466 9.408-22.208 9.408-24.896 0-0.666 0-0.666-0.666-1.357-14.81-8.729-22.221-12.774-22.221-12.774-2.701 0-16.141 19.507-17.498 20.877-2.701 0-4.019-0.666-5.376-0.666s-2.714 0.666-5.389 0.666c-1.344-1.357-15.488-20.877-18.163-20.877 0 0-7.424 4.045-22.221 12.774-0.678 0.704-0.678 0.704-0.678 1.357 0 2.701 3.392 11.443 9.421 24.896-2.022 2.701-4.019 6.055-5.363 9.408-17.523 2.035-26.931 3.379-26.931 5.401v24.87c0 2.048 9.447 3.392 26.931 5.389 1.331 3.392 3.353 6.733 5.363 9.433-6.080 13.466-9.421 22.221-9.421 24.896 0 2.022 3.392 2.022 7.399 4.711 4.032 2.022 6.733 4.032 10.112 6.067 3.366 2.010 5.389 3.353 5.389 3.353v0zM336.115 382.144c2.688 0 16.819-19.507 18.163-20.864 2.701 0 4.019 0.679 5.389 0.679 1.344 0 2.688-0.679 5.376-0.679 6.080 8.768 11.456 15.488 16.154 20.199l1.344 0.678c0.691 0 8.077-4.71 22.221-12.8 0.666-0.678 0.666-0.678 0.666-1.331 0-2.701-3.366-11.443-9.408-24.896 2.010-2.714 4.032-6.080 5.389-9.433 17.485-2.035 26.918-3.379 26.918-5.376v-24.909c0-2.022-9.433-3.379-26.918-5.376-1.344-3.379-3.379-6.72-5.389-9.421 6.055-13.453 9.408-22.221 9.408-24.909 0-0.679 0-0.679-0.666-1.331-14.81-8.755-22.221-12.8-22.221-12.8-2.701 0-16.141 19.52-17.498 20.864-2.701 0-4.019-0.678-5.376-0.678s-2.714 0.678-5.389 0.678c-1.344-1.344-15.488-20.864-18.163-20.864 0 0-7.424 4.032-22.221 12.8-0.678 0.678-0.678 0.678-0.678 1.331 0 2.701 3.392 11.456 9.421 24.909-2.022 2.701-4.019 6.067-5.363 9.421-17.523 2.035-26.931 3.379-26.931 5.376v24.909c0 2.022 9.447 3.379 26.931 5.376 1.331 3.379 3.353 6.72 5.363 9.433-6.080 13.453-9.421 22.208-9.421 24.896 0 2.035 3.392 2.035 7.399 4.71 4.032 2.023 6.733 4.032 10.112 6.055 3.366 2.022 5.389 3.367 5.389 3.353v0z" />
<glyph unicode="&#xe635;" glyph-name="fc_star" d="M163.802 74.483c-5.286 0-7.911 4.595-7.911 9.869 0 0.653 0.666 1.293 0.666 3.289l15.808 94.169-68.505 66.522c-3.29 3.328-4.608 6.592-4.608 9.255 0 4.608 3.29 7.257 10.534 8.563l94.835 13.824 42.15 85.619c2.624 5.261 5.261 7.91 9.203 7.91 3.955 0 6.579-2.649 9.203-7.91l42.176-85.619 94.797-13.824c7.283-1.331 10.586-3.968 10.586-8.563 0-2.637-1.971-5.939-5.261-9.242l-67.865-66.521 15.821-94.169v-3.303c0-5.274-1.997-9.869-7.245-9.869-2.637 0-5.274 1.318-7.911 2.611l-84.275 44.185-84.301-44.16c-2.637-1.331-5.939-2.637-7.898-2.637v0z" />
<glyph unicode="&#xe636;" glyph-name="fc_delete" d="M336.499 327.654l-80.525-80.525-80.512 80.512-27.43-27.43 80.512-80.512-80.525-80.525 27.443-27.43 80.525 80.525 80.512-80.525 27.43 27.43-80.512 80.525 80.512 80.512z" />
<glyph unicode="&#xe637;" glyph-name="fc_add" d="M389.248 239.091h-113.869v113.869h-38.797v-113.869h-113.869v-38.797h113.869v-113.869h38.797v113.869h113.869z" />
<glyph unicode="&#xe638;" glyph-name="dp_refresh" d="M334.055 194.112c-1.549-17.011-9.28-33.587-23.194-46.643-31.373-29.325-82.253-29.325-113.638 0-31.386 29.351-31.386 76.864 0 106.214 14.745 13.798 33.817 20.928 53.133 21.683v-50.855l106.099 61.44-106.099 70.976v-46.605c-27.904-1.267-55.399-11.712-76.71-31.782-22.797-21.453-34.189-49.575-34.189-77.696 0-28.109 11.392-56.243 34.189-77.696 22.745-21.414 52.544-32.141 82.355-32.192 29.926-0.051 59.879 10.688 82.714 32.192 20.941 19.75 32.166 45.082 33.869 70.912l-38.528 0.051z" />
<glyph unicode="&#xe639;" glyph-name="fc_randomize" d="M97.689 320.154c0 3.097 2.471 5.568 5.581 5.568h39.578c29.683 0 53.798-12.992 72.346-39.577-6.797-11.136-14.835-27.2-24.115-48.231-5.581 10.522-6.81 14.221-13.607 23.501-7.411 10.509-17.319 19.175-34.624 19.175h-39.59c-3.097 0-5.581 2.47-5.581 5.568v33.997zM346.291 201.421c0 3.098 2.457 5.581 5.568 5.581 1.241 0 3.085-0.627 4.327-1.869l56.295-56.269c1.229-1.229 1.856-2.445 1.856-4.327s-0.627-2.471-1.856-3.699l-56.294-56.896c-1.241-1.229-2.471-1.229-4.327-1.229-3.098 0-5.568 2.471-5.568 5.555v34.022c-17.933 0-38.349-1.255-54.425 0.627-6.183 0.627-17.92 2.471-22.873 4.928-4.954 2.471-14.861 7.424-20.429 12.377-6.809 6.195-14.221 13.594-19.789 21.671 6.81 11.123 14.848 27.2 24.128 48.231 5.581-10.522 6.797-14.848 13.606-24.128 7.424-10.522 17.318-18.547 34.624-18.547h45.145v33.971zM346.291 359.731c0 3.097 2.457 5.581 5.568 5.581 1.241 0 3.085-0.627 4.327-1.869l56.295-56.269c1.229-1.241 1.856-2.47 1.856-4.339 0-1.856-0.627-2.471-1.856-3.712l-56.294-56.896c-1.241-1.242-2.471-1.242-4.327-1.242-3.098 0-5.568 2.47-5.568 5.568v34.022h-45.145c-25.37 0-35.865-17.933-44.531-35.251-12.979-25.971-25.959-63.706-43.277-85.952-6.81-9.305-18.547-21.671-29.069-27.2-10.509-5.581-25.344-9.894-41.434-9.894h-39.603c-3.085 0-5.568 2.471-5.568 5.555v34.022c0 3.098 2.471 5.581 5.568 5.581h39.577c25.357 0 35.879 17.945 44.531 35.251 13.005 25.984 25.971 63.705 43.29 85.952 6.797 9.28 18.547 21.031 29.069 26.599s25.357 10.522 41.433 10.522h45.145v33.971z" />
<glyph unicode="&#xe63f;" glyph-name="info, i" d="M288 120c0-31 3-33 38-36v-14h-137v14c34 3 37 5 37 36v90c0 29-3 31-32 35v12c32 3 65 9 94 17v-154zM285 336c0-21-18-39-39-39s-39 18-39 39 18 38 39 38 39-17 39-38z" />
<glyph unicode="&#xe640;" glyph-name="correct" d="M384.371 224c0 52.185-28.966 91.955-63.769 111.834-19.878 11.597-41.382 16.537-64.615 16.537-52.198 0-91.955-29.017-111.846-63.782-11.609-19.878-16.563-41.395-16.563-64.601 0-52.199 29.017-91.955 63.808-111.821 19.879-11.61 41.395-16.55 64.601-16.55 52.16 0 91.955 28.954 111.783 63.782 11.648 19.853 16.601 41.421 16.601 64.601zM412.096 224c0-62.707-35.61-110.477-77.709-135.437-24.218-14.233-49.894-20.659-78.387-20.659-62.733 0-110.477 35.61-135.45 77.709-14.246 24.218-20.647 49.894-20.647 78.387 0 62.733 35.623 110.477 77.696 135.45 24.231 14.233 49.881 20.647 78.413 20.647 62.72 0 110.477-35.597 135.437-77.683 14.221-24.243 20.647-49.907 20.647-78.413zM341.978 262.835l-112.909-112.333-59.034 58.457 21.773 21.786 37.261-37.261 91.136 91.136 21.773-21.786z" />
<glyph unicode="&#xe641;" glyph-name="incorrect" d="M384.678 224c0 52.313-29.043 92.173-63.923 112.103-19.93 11.623-41.472 16.576-64.768 16.576-52.314 0-92.173-29.082-112.102-63.949-11.635-19.917-16.602-41.498-16.602-64.755 0-52.327 29.069-92.173 63.949-112.089 19.929-11.635 41.498-16.601 64.755-16.601 52.288 0 92.16 29.031 112.064 63.949 11.661 19.904 16.627 41.549 16.627 64.768zM412.467 224c0-62.861-35.687-110.733-77.888-135.757-24.269-14.272-50.022-20.697-78.579-20.697-62.887 0-110.733 35.687-135.769 77.888-14.272 24.269-20.685 50.022-20.685 78.567 0 62.887 35.699 110.733 77.863 135.769 24.294 14.259 50.010 20.697 78.605 20.697 62.861 0 110.733-35.699 135.757-77.862 14.272-24.295 20.697-50.035 20.697-78.605zM315.546 298.803l-59.584-59.571-59.571 59.571-20.301-20.301 59.571-59.571-59.571-59.571 20.301-20.288 59.571 59.571 59.571-59.571 20.288 20.288-59.558 59.571 59.558 59.571-20.275 20.301z" />
<glyph unicode="&#xe642;" glyph-name="close" d="M336.499 327.654l-80.525-80.525-80.512 80.512-27.43-27.43 80.512-80.512-80.525-80.525 27.443-27.43 80.525 80.525 80.512-80.525 27.43 27.43-80.512 80.525 80.512 80.512z" />
<glyph unicode="&#xe645;" glyph-name="down_arrow" d="M366.512 297.504v-70l-110-80.992-110 80.992v70l110-83.008 110 83.008z" />
<glyph unicode="&#xe646;" glyph-name="zoom_in" d="M227.853 328.909h-20.877v-61.248h-61.248v-20.889h61.274v-61.248l20.851-0.013v61.248h61.261v20.889l-61.261 0.013zM408.973 87.411l-102.541 102.541c14.861 18.586 24.807 42.662 24.807 70.938 0 20.774-4.672 39.488-15.065 57.165-18.189 30.656-53.005 56.615-98.701 56.615-20.787 0-39.488-4.672-57.152-15.053-30.656-18.214-56.614-53.005-56.614-98.726 0-20.749 4.659-39.475 15.040-57.127 18.202-30.681 52.992-56.627 98.714-56.627 20.749 0 39.488 4.672 57.139 15.053 6.067 3.584 11.904 7.834 17.421 12.672l102.208-102.195 14.745 14.745zM217.446 167.283c-16.896 0-32.602 3.623-47.078 12.083-25.369 14.49-46.502 43.456-46.502 81.498 0 16.909 3.609 32.601 12.071 47.104 14.489 25.357 43.469 46.477 81.511 46.477 16.935 0 32.601-3.597 47.091-12.045 25.37-14.489 46.477-43.469 46.477-81.51 0-16.883-3.61-32.614-12.083-47.091-14.464-25.395-43.469-46.515-81.485-46.515z" />
<glyph unicode="&#xe647;" glyph-name="zoom_out" d="M146.803 267.418h141.555v-20.595h-141.555v20.595zM406.695 89.485l-101.235 101.235c14.656 18.342 24.474 42.112 24.474 70.029 0 20.519-4.608 38.989-14.861 56.435-17.959 30.259-52.327 55.897-97.447 55.897-20.531 0-38.989-4.621-56.423-14.861-30.272-17.971-55.898-52.313-55.898-97.459 0-20.506 4.608-38.976 14.848-56.409 17.971-30.298 52.313-55.897 97.459-55.897 20.493 0 38.989 4.608 56.397 14.848 5.99 3.546 11.75 7.744 17.203 12.531l100.915-100.903 14.567 14.553zM217.6 168.346c-16.691 0-32.179 3.571-46.477 11.93-25.049 14.285-45.901 42.906-45.901 80.461 0 16.704 3.559 32.192 11.917 46.489 14.31 25.024 42.918 45.901 80.474 45.901 16.717 0 32.179-3.559 46.489-11.904 25.037-14.311 45.888-42.918 45.888-80.474 0-16.678-3.558-32.205-11.942-46.502-14.285-25.063-42.906-45.901-80.448-45.901z" />
<glyph unicode="&#xe650;" glyph-name="dp_pointer" d="M356.327 217.331l-166.784 141.901v-219.635l57.447 53.299 49.882-103.949 35.789 17.152-49.817 103.859z" />
<glyph unicode="&#xe651;" glyph-name="dp_pen" d="M138.995 71.207l64.269 41.779-43.085 32.819zM352.089 364.608c-38.567 26.266-61.325 3.815-61.325 3.815l-107.75-156.275-18.112-53.401 46.681-35.251 50.637 40.154 108.16 150.438c0 0.013 11.712 30.080-18.291 50.522zM213.952 199.974l-11.597 9.075 101.491 148.39 13.337-6.822-103.232-150.643z" />
<glyph unicode="&#xe652;" glyph-name="dp_stamp" d="M391.117 74.214h-270.247v19.264h270.233v-19.264zM402.931 157.312h-293.863v-55.104h293.849v55.104zM257.728 373.773c-28.237 0-51.136-5.235-51.136-25.447 0-20.224 0-53.913 0-53.913s24.704-20.211 24.704-55.629c0-24.947 0-73.511 0-73.511h48.679c0 0 0 42.624 0 73.51 0 30.861 25.433 55.629 25.433 55.629s0 36.685 0 53.913c0.013 17.216-19.456 25.446-47.68 25.446zM237.376 345.216c0-11.059 0-45.504 0-45.504h-16.589c0 0 0 31.36 0 45.504s25.216 18.457 25.216 18.457-8.627-7.399-8.627-18.457z" />
<glyph unicode="&#xe653;" glyph-name="dp_eraser" d="M439.591 335.526l-127.411 4.454-202.15-116.442h171.302zM296.819 203.635l-21.99-86.336 149.619 133.222 15.142 61.607zM88.346 108.608c26.394 0 161.255 0 161.255 0l25.229 95.027h-172.006c0 0-57.843-95.027-14.477-95.027z" />
<glyph unicode="&#xe654;" glyph-name="dp_undo" d="M253.965 200.601l-16.602 60.237c170.957-14.822 55.040-172.928-5.145-197.837 65.408 2.714 169.331 88.089 172.186 160.999 1.869 48.179-40.384 90.918-167.040 100.787l16.602 60.211-151.104-92.198 151.104-92.199z" />
<glyph unicode="&#xe655;" glyph-name="dp_redo" d="M253.338 200.601l151.117 92.198-151.117 92.199 16.614-60.211c-126.669-9.869-168.909-52.621-167.027-100.8 2.841-72.909 106.752-158.272 172.173-160.986-60.185 24.896-176.102 183.001-5.133 197.837l-16.627-60.237z" />
<glyph unicode="&#xe656;" glyph-name="dp_math_tool2" d="M89.319 344.96h9.651c2.573 7.526 6.643 15.577 12.275 24.141 5.645 8.55 10.841 13.159 15.629 13.837 2.637 0.333 5.85 0.615 9.728 0.87 3.891 0.269 7.232 0.371 9.984 0.371h5.824v-138.893c0-3.072-0.55-5.671-1.6-7.962-1.063-2.202-3.213-3.955-6.477-5.299-1.549-0.653-4.506-1.178-8.806-1.638-4.339-0.474-7.68-0.819-10.112-1.075v-9.677h97.856v9.677c-2.791 0.307-6.208 0.87-10.189 1.677-4.006 0.768-6.938 1.523-8.857 2.279-3.136 1.331-5.222 3.123-6.31 5.401-1.063 2.253-1.6 4.851-1.6 7.859v137.664h5.798c2.816 0 6.119-0.128 10.010-0.371 3.84-0.269 7.104-0.537 9.728-0.87 4.774-0.666 9.997-5.286 15.629-13.837 5.607-8.563 9.702-16.615 12.262-24.141h9.69v50.227h-170.112v-50.24zM423.517 376.265l-316.935-316.935-15.079 15.079 316.935 316.935 15.079-15.079zM237.376 165.619h188.275v-27.418h-188.275v27.418zM357.568 218.56c0-14.393-11.668-26.061-26.061-26.061s-26.061 11.668-26.061 26.061c0 14.393 11.668 26.061 26.061 26.061s26.061-11.668 26.061-26.061zM357.568 85.286c0-14.393-11.668-26.061-26.061-26.061s-26.061 11.668-26.061 26.061c0 14.393 11.668 26.061 26.061 26.061s26.061-11.668 26.061-26.061z" />
<glyph unicode="&#xe657;" glyph-name="dp_objects" d="M394.803 191.181v163.353c14.477 4.16 25.178 17.395 25.178 33.229 0 19.187-15.603 34.714-34.752 34.714-16.154 0-29.581-11.085-33.472-26.022h-239.488c-3.865 14.938-17.331 26.022-33.498 26.022-19.136 0-34.714-15.539-34.714-34.714 0-15.539 10.291-28.505 24.32-32.96v-211.264c-14.041-4.48-24.32-17.447-24.32-32.986 0-19.149 15.59-34.726 34.727-34.726 15.757 0 28.889 10.56 33.152 24.896h190.118c4.147-42.163 39.271-75.2 82.522-75.2 46.003 0 83.353 37.325 83.353 83.353 0 42.483-32 77.171-73.127 82.304zM112.64 118.080c-2.944 13.325-13.504 23.795-26.893 26.496v209.19c13.005 2.624 23.258 12.595 26.547 25.37h239.475c3.226-12.467 13.069-22.183 25.702-25.088v-162.585c-39.577-3.392-70.925-34.125-75.328-73.331l-189.504-0.051zM444.774 97.28h-48.601v-48.627h-23.181v48.627h-48.601v23.142h48.601v48.653h23.181v-48.653h48.601v-23.142zM232.307 351.923c-55.168 0-100.019-44.839-100.019-100.032 0-55.142 44.851-99.993 100.019-99.993s100.006 44.851 100.006 99.993c0.013 55.194-44.839 100.032-100.007 100.032zM232.307 173.901c-43.059 0-78.067 35.021-78.067 78.041s34.995 78.067 78.067 78.067c43.008 0 78.041-35.034 78.041-78.067 0-43.059-35.021-78.041-78.041-78.041z" />
<glyph unicode="&#xe658;" glyph-name="dp-trash" d="M138.957 288.538c0 21.824 17.702 39.513 39.513 39.513h32.231c4.941 23.002 20.429 39.45 44.915 39.45 24.499 0 43.277-16.448 48.205-39.45h32.256c21.798 0 39.501-17.702 39.501-39.513h-236.621zM255.616 353.945c-18.662 0-22.861-13.683-27.29-25.882h57.063c-4.429 12.199-9.459 25.882-29.773 25.882zM362.663 116.429c0-21.798-17.677-39.475-39.501-39.475h-133.171c-21.798 0-39.501 17.677-39.501 39.475v156.762h212.173v-156.762zM350.285 260.787h-185.216v-130.867c0-21.824 17.702-39.501 39.513-39.501h106.189c21.798 0 39.514 17.677 39.514 39.501v130.867zM298.969 241.869h23.040v-124.006h-23.040v124.007zM246.298 241.869h23.027v-124.006h-23.027v124.007zM193.6 241.869h23.053v-124.006h-23.053v124.007z" />
<glyph unicode="&#xe659;" glyph-name="drawpad_upload_image" d="M381.478 331.853h-39.923l-9.088 24.243c-4.454 11.75-18.368 21.389-30.822 21.389h-91.264c-12.48 0-26.381-9.625-30.835-21.389l-9.088-24.243h-39.923c-25.126 0-45.632-20.506-45.632-45.619v-159.706c0-25.139 20.505-45.619 45.632-45.619h250.944c25.139 0 45.632 20.493 45.632 45.619v159.693c0 25.127-20.493 45.632-45.632 45.632zM256 126.528c-44.032 0-79.859 35.815-79.859 79.846 0 44.019 35.827 79.846 79.859 79.846s79.846-35.827 79.846-79.846c0-44.032-35.815-79.846-79.846-79.846zM307.328 206.375c0-28.348-22.981-51.328-51.328-51.328s-51.328 22.981-51.328 51.328c0 28.347 22.981 51.328 51.328 51.328s51.328-22.98 51.328-51.328z" />
<glyph unicode="&#xe660;" glyph-name="dp_line" d="M105.133 92.512l-21.835 29.494 319.875 236.812 21.835-29.494-319.875-236.812z" />
<glyph unicode="&#xe661;" glyph-name="dp_draw" d="M87.066 72.371c-1.472 10.394-13.12 102.464 30.592 138.841 21.594 17.946 50.931 18.611 87.155 1.933 17.242-7.923 40.832-15.053 55.309-4.007 18.304 13.952 20.032 52.519 19.161 66.202-0.563 6.208-4.57 65.229 32.793 90.227 28.57 19.097 68.749 11.072 122.816-24.576l-18.739-32.793c-39.603 26.125-69.837 34.906-85.069 24.743-15.923-10.573-16.973-43.712-16.089-54.489 0.499-7.552 3.75-71.655-34.022-100.595-22.451-17.241-52.839-17.267-90.24-0.064-23.373 10.765-40.589 11.75-51.149 2.983-23.117-19.238-20.007-82.087-17.101-102.605l-35.417-5.798z" />
<glyph unicode="&#xe662;" glyph-name="dp_math_tools" d="M138.061 241.178h235.879v-34.355h-235.879v34.355zM283.571 310.4c0-15.227-12.344-27.571-27.571-27.571s-27.571 12.344-27.571 27.571c0 15.227 12.344 27.571 27.571 27.571s27.571-12.344 27.571-27.571zM283.571 137.6c0-15.227-12.344-27.571-27.571-27.571s-27.571 12.344-27.571 27.571c0 15.227 12.344 27.571 27.571 27.571s27.571-12.344 27.571-27.571z" />
<glyph unicode="&#xe663;" glyph-name="dp_text" d="M129.063 279.475h14.4c3.853 11.226 9.907 23.232 18.329 36.032 8.422 12.762 16.167 19.648 23.309 20.647 3.942 0.499 8.755 0.909 14.528 1.318 5.798 0.359 10.791 0.538 14.912 0.538h8.691v-207.296c0-4.595-0.806-8.474-2.393-11.853-1.6-3.328-4.8-5.952-9.651-7.936-2.317-0.96-6.745-1.767-13.184-2.432-6.464-0.691-11.456-1.241-15.078-1.587v-14.464h146.061v14.464c-4.173 0.448-9.267 1.305-15.207 2.483-5.99 1.127-10.381 2.253-13.223 3.405-4.659 1.997-7.795 4.659-9.408 8.051-1.6 3.366-2.406 7.245-2.406 11.738v205.44h8.627c4.237 0 9.152-0.179 14.963-0.537 5.721-0.41 10.599-0.819 14.515-1.319 7.13-0.998 14.912-7.885 23.322-20.647 8.397-12.8 14.49-24.807 18.304-36.032h14.464v74.969h-253.875v-74.982z" />
<glyph unicode="&#xe664;" glyph-name="dp_text_size" d="M192.845 269.261h13.274c3.533 10.355 9.139 21.44 16.909 33.229 7.769 11.763 14.912 18.137 21.491 19.047 3.648 0.461 8.064 0.819 13.401 1.216 5.351 0.32 9.959 0.499 13.76 0.499h8.026v-191.181c0-4.224-0.793-7.808-2.227-10.944-1.472-3.046-4.442-5.466-8.896-7.309-2.137-0.883-6.221-1.613-12.147-2.265-5.977-0.64-10.573-1.139-13.913-1.459v-13.312h134.707v13.312c-3.827 0.423-8.55 1.216-14.041 2.291-5.504 1.050-9.562 2.087-12.16 3.136-4.301 1.856-7.207 4.313-8.691 7.45-1.459 3.085-2.214 6.669-2.214 10.816v189.465h7.974c3.891 0 8.423-0.166 13.773-0.499 5.286-0.384 9.753-0.768 13.401-1.216 6.567-0.909 13.76-7.283 21.517-19.046 7.731-11.789 13.363-22.887 16.858-33.229h13.337v69.159h-234.137v-69.159zM85.043 202.24h8.141c2.15 6.336 5.581 13.094 10.343 20.313 4.736 7.207 9.101 11.085 13.145 11.661 2.215 0.269 4.928 0.499 8.179 0.755 3.277 0.205 6.093 0.294 8.409 0.294h4.903v-116.941c0-2.547-0.474-4.762-1.344-6.669-0.909-1.869-2.714-3.328-5.465-4.48-1.293-0.55-3.789-0.998-7.411-1.382-3.661-0.384-6.464-0.691-8.525-0.87v-8.154h82.394v8.154c-2.355 0.231-5.235 0.729-8.589 1.37-3.367 0.653-5.85 1.267-7.45 1.907-2.637 1.139-4.403 2.637-5.325 4.544-0.883 1.894-1.344 4.096-1.344 6.618v115.904h4.877c2.368 0 5.159-0.115 8.435-0.294 3.226-0.256 5.965-0.474 8.179-0.755 4.006-0.576 8.41-4.467 13.145-11.661 4.749-7.207 8.179-13.978 10.329-20.313h8.141v42.291h-143.168v-42.291z" />
<glyph unicode="&#xe665;" glyph-name="dp_math_plus" d="M373.926 236.864h-100.774v100.775h-34.343v-100.774h-100.775v-34.342h100.774v-100.774h34.342v100.774h100.774z" />
<glyph unicode="&#xe666;" glyph-name="dp_math_minus" d="M138.048 236.864h235.879v-34.343h-235.879v34.343z" />
<glyph unicode="&#xe667;" glyph-name="dp_math_multiply" d="M336.499 327.654l-80.525-80.525-80.512 80.512-27.43-27.43 80.512-80.512-80.525-80.525 27.443-27.43 80.525 80.525 80.512-80.525 27.43 27.43-80.512 80.525 80.512 80.512z" />
<glyph unicode="&#xe668;" glyph-name="dp_math_divide" d="M138.061 241.178h235.879v-34.355h-235.879v34.355zM283.571 310.4c0-15.227-12.344-27.571-27.571-27.571s-27.571 12.344-27.571 27.571c0 15.227 12.344 27.571 27.571 27.571s27.571-12.344 27.571-27.571zM283.571 137.6c0-15.227-12.344-27.571-27.571-27.571s-27.571 12.344-27.571 27.571c0 15.227 12.344 27.571 27.571 27.571s27.571-12.344 27.571-27.571z" />
<glyph unicode="&#xe669;" glyph-name="dp_math_equals" d="M148.544 200h213.901v-34.342h-213.901v34.342zM149.555 282.342h213.901v-34.342h-213.901v34.342z" />
<glyph unicode="&#xe66a;" glyph-name="dp_question" d="M317.76 219.149c-32.653-29.12-44.557-47.654-45.005-75.904h-30.887c0.448 36.199 12.365 58.701 45.888 90.022 30.003 27.789 37.069 40.154 37.069 61.773 0 37.939-28.237 65.306-67.059 65.306-42.355 0-72.358-24.717-72.358-78.093h-30.874c0 71.027 45.005 107.648 103.232 107.648 57.805 0 99.712-40.154 99.712-95.731 0-28.25-10.586-48.985-39.719-75.021zM240.999 58.099v55.603h32.64v-55.603h-32.64z" />
<glyph unicode="&#xe66b;" glyph-name="dp_math_less" d="M359.152 321.936l-206.304-84.352v-26.48l206.304-85.040v32.064l-168.672 65.888 168.672 66.544z" />
<glyph unicode="&#xe66c;" glyph-name="dp_math_greater" d="M152.848 321.936l206.304-84.352v-26.48l-206.304-85.040v32.064l168.672 65.888-168.672 66.544z" />
<glyph unicode="&#xe66d;" glyph-name="dp_math_dollar" d="M242.253 58.022v40.832c-23.45 0.397-47.706 7.68-61.863 17.792l9.702 27.085c14.553-9.702 35.571-17.37 58.214-17.37 28.711 0 48.103 16.563 48.103 39.616 0 22.233-15.744 35.993-45.671 48.115-41.242 16.179-66.714 34.778-66.714 69.952 0 33.549 23.859 59.021 61.043 65.101v40.832h25.063v-39.219c24.269-0.807 40.845-7.27 52.57-14.144l-10.125-26.688c-8.474 4.851-25.050 13.747-50.931 13.747-31.142 0-42.867-18.599-42.867-34.777 0-21.031 14.963-31.539 50.138-46.093 41.664-16.986 62.669-38.016 62.669-73.997 0-31.936-22.221-61.849-63.872-68.736v-42.035h-25.459z" />
<glyph unicode="&#xe66e;" glyph-name="dp_math_cent" d="M261.389 91.75v38.873c-24.64 3.072-41.971 11.955-55.821 26.944-13.082 14.656-21.568 36.954-21.568 65.063 0 49.677 30.413 87.399 77.389 95.104v38.515h23.885v-37.747c17.305 0 33.101-4.992 41.945-9.613l-7.705-25.792c-7.731 4.621-20.8 9.625-40.051 9.625-38.106 0-61.594-30.81-61.594-68.531 0-42.739 26.176-67.763 60.070-67.763 21.171 0 34.649 5.376 43.878 9.625l6.17-24.269c-7.705-4.224-23.872-10.381-42.726-11.149v-38.873h-23.872z" />
<glyph unicode="&#xe66f;" glyph-name="dp_math_square" d="M309.235 168.051h-106.483v111.885h106.483v-111.885z" />
<glyph unicode="&#xe670;" glyph-name="dp_math_not" d="M363.456 248v34.342h-62.515l20.672 46.375h-37.875l-20.595-46.375h-113.587v-34.343h98.329l-21.325-48h-78.016v-34.342h62.758l-20.608-46.375h37.581l20.672 46.375h113.498v34.342h-98.189l21.376 48z" />
<glyph unicode="&#xe671;" glyph-name="dp_math_degree" d="M330.688 300.377c0-18.983-6.618-34.995-19.815-48.038-13.197-13.056-29.363-19.571-48.435-19.571-19.085 0-35.238 6.528-48.448 19.571s-19.815 29.056-19.815 48.038 6.605 34.983 19.815 48.038c13.197 13.043 29.351 19.571 48.448 19.571 19.2 0 35.366-6.515 48.525-19.571 13.146-13.056 19.725-29.056 19.725-48.038zM293.837 300.301c0 8.87-3.008 16.461-8.998 22.771-5.99 6.336-13.466 9.498-22.4 9.498-8.832 0-16.281-3.123-22.323-9.408-6.042-6.272-9.063-13.888-9.063-22.861 0-9.203 3.034-16.845 9.126-22.938 6.093-6.106 13.517-9.165 22.233-9.165 8.947 0 16.423 3.123 22.413 9.421 6.003 6.246 9.011 13.811 9.011 22.682z" />
<glyph unicode="&#xe672;" glyph-name="dp_math_less_equal" d="M359.152 325.28l-206.304-68.336v-26.512l206.304-69.024v32.064l-168.688 49.888 168.688 50.544zM152.848 150.496h206.32v-27.776h-206.32v27.776z" />
<glyph unicode="&#xe673;" glyph-name="dp_math_greater_equals" d="M152.848 325.28l206.304-68.336v-26.512l-206.304-69.024v32.064l168.688 49.888-168.688 50.544zM152.848 150.496h206.32v-27.776h-206.32v27.776z" />
<glyph unicode="&#xe674;" glyph-name="dp_math_angle" d="M149.184 161.677l142.976 162.176 49.945-2.125-139.161-157.926h160.563l-0.486-32.423h-214.72z" />
<glyph unicode="&#xe675;" glyph-name="dp_math_pi" d="M340.467 305.126v-127.078c0-37.031 3.289-55.795 6.592-67.507h-39.872c-3.738 7.027-7.002 27.2-7.002 63.283v131.303h-74.585c-1.869-59.546-15.463-157.069-31.872-194.585h-39.399c16.896 44.531 30.016 134.579 31.898 194.586-18.291 0-34.701-0.935-46.413-4.224l-5.632 24.384c10.317 7.040 29.069 12.185 65.178 12.185h177.216l-4.672-32.346h-31.437z" />
<glyph unicode="&#xe676;" glyph-name="dp_math_arrow" d="M418.483 221.543l-82.573 69.005v-52.659h-242.393v-36.173h242.393v-48.615z" />
<glyph unicode="&#xe677;" glyph-name="dp_math_congruent" d="M199.091 275.558c15.693 0 31.821-9.152 52.314-19.187 30.080-13.952 45.773-19.174 63.219-19.174 27.021 0 52.301 16.999 50.125 65.831h-26.151c-0.448-23.975-7.846-36.608-23.552-36.608-16.128 0-32.256 7.834-54.502 18.304-29.197 13.952-43.149 19.623-61.453 19.623-30.080 0-53.619-22.233-51.879-65.831h25.715c0.87 26.15 10.47 37.043 26.163 37.043zM338.599 209.485c-0.448-23.974-7.846-36.608-23.552-36.608-16.128 0-32.256 7.846-54.502 18.304-29.197 13.965-43.149 19.623-61.453 19.623-30.080 0-53.619-22.233-51.879-65.831h25.715c0.87 26.151 10.458 37.056 26.15 37.056s31.821-9.152 52.314-19.175c30.080-13.952 45.773-19.187 63.219-19.187 27.021 0 52.301 16.998 50.125 65.831h-26.137z" />
<glyph unicode="&#xe678;" glyph-name="dp_math_squareroot" d="M379.418 367.488l-125.312-287.002h-24.743l-63.309 137.203h-33.459v29.671h69.401l47.45-105.498 98.176 225.625h31.795z" />
<glyph unicode="&#xe679;" glyph-name="dp_handle" d="M353.562 249.894l-124.135-124.736 29.709-29.696 124.122 124.736zM128.734 167.558l184.964 184.964 29.696-29.696-184.964-184.964-29.696 29.696z" />
<glyph unicode="&#xe67a;" glyph-name="dp_shape_add" d="M373.926 236.864h-100.774v100.775h-34.343v-100.774h-100.775v-34.342h100.774v-100.774h34.342v100.774h100.774z" />
<glyph unicode="&#xe67b;" glyph-name="dp-type" d="M271.629 286.131v12.48h0.154c0.128 8.448 6.925 15.245 15.373 15.347h35.801v14.323h-42.637v-0.256c-10.803-0.102-19.687-8.013-21.376-18.381-1.702 10.368-10.573 18.279-21.376 18.355v0.256h-42.624v-14.336h35.802c8.448-0.064 15.245-6.861 15.373-15.309h0.154v-71.002h-13.145v-15.13h13.145v-70.528h-0.154c-0.128-8.448-6.925-15.245-15.373-15.322h-35.802v-14.349h42.624v0.269c10.803 0.077 19.674 8 21.376 18.355 1.702-10.355 10.586-18.279 21.376-18.381v-0.256h42.624v14.349h-35.801c-8.448 0.051-15.245 6.873-15.373 15.283h-0.154v12.493c-0.115-0.026-0.192-0.103-0.269-0.166v58.253h13.133v15.143h-13.12v58.688c0.077-0.051 0.154-0.128 0.269-0.179z" />
<glyph unicode="&#xe680;" glyph-name="gl_search" d="M422.375 77.491l-121.869 121.882c17.831 21.248 28.57 48.589 28.57 78.425 0 67.418-54.848 122.265-122.279 122.265s-122.253-54.848-122.253-122.265c0-67.456 54.809-122.279 122.253-122.279 25.113 0 48.487 7.629 67.93 20.647l123.174-123.175c6.745-6.759 17.728-6.759 24.474 0 6.771 6.771 6.771 17.728 0 24.499zM112.192 277.811c0 52.173 42.419 94.617 94.605 94.617 52.173 0 94.631-42.445 94.631-94.617 0-52.186-42.419-94.631-94.63-94.631-52.185 0-94.605 42.419-94.605 94.63z" />
<glyph unicode="&#xe690;" glyph-name="dp_equation_editor" d="M61.529 216.115l-38.489-78.49 36.979 32.525 99.405-125.927 81.498 300.416h245.235l11.315 43.353h-290.317l-64.896-253.952zM348.902 239.386c15.552 21.696 28.032 36.903 37.529 45.632 9.472 8.755 18.726 13.12 27.725 13.12 10.765 0 18.202-3.789 22.285-11.341 2.176-3.93 3.277-8.679 3.277-14.285 0-5.734-2.265-10.995-6.745-15.731-4.519-4.762-9.984-7.13-16.384-7.13-3.981 0-8.423 1.536-13.427 4.608-4.992 3.072-8.768 4.608-11.366 4.608-5.056 0-9.869-2.637-14.438-7.962-4.582-5.312-12.467-16.55-23.654-33.753l3.878-21.005c2.074-10.777 3.776-19.635 5.12-26.56 1.382-6.95 2.88-13.337 4.531-19.226 2.189-8.128 4.365-14.016 6.553-17.651 2.189-3.623 5.401-5.466 9.639-5.466 3.815 0 8.474 2.88 13.939 8.615 2.995 3.072 7.577 8.755 13.709 16.998l8.615-6.093c-7.232-12.467-16.627-24.281-28.147-35.469-11.52-11.213-22.797-16.793-33.856-16.793-9.28 0-16.909 3.942-22.925 11.776-3.392 4.211-6.4 9.959-8.986 17.255-1.37 3.789-3.238 10.483-5.619 20.096s-3.917 15.539-4.595 17.792l-2.867-5.043c-13.517-23.783-23.399-39.219-29.657-46.375-9.408-10.611-20.327-15.923-32.743-15.923-7.078 0-13.261 2.471-18.509 7.462-5.248 4.954-7.872 11.085-7.872 18.355 0 6.029 1.946 11.584 5.837 16.704s9.319 7.654 16.269 7.654c4.237 0 9.459-1.523 15.642-4.595 6.208-3.072 10.265-4.634 12.185-4.634 4.224 0 7.859 1.92 10.931 5.76 3.059 3.853 9.113 13.376 18.099 28.595l8.179 13.811c-1.331 5.875-2.829 13.094-4.377 21.645-1.587 8.55-3.175 17.293-4.813 26.279l-3.277 17.843c-2.317 12.89-6.016 21.363-11.046 25.434-2.88 2.394-7.565 3.571-14.118 3.571-0.691 0-2.329-0.103-4.902-0.307-2.611-0.217-5.197-0.461-7.795-0.743v11.341c12.275 1.536 25.741 3.494 40.423 5.875 14.669 2.368 24.435 4.045 29.351 5.031 4.096-5.594 7.475-12.378 10.151-20.339 2.649-7.987 4.647-16.448 6.029-25.395l2.227-14.041z" />
<glyph unicode="&#xe692;" glyph-name="periodic" d="M60.096 419.84v-393.536h393.562v393.536h-393.562zM423.002 56.973h-332.25v332.199h332.25v-332.199zM169.869 142.375c0 24.499-0.423 45.683-1.331 65.536l0.666 0.231c7.36-17.6 17.165-37.005 26.087-53.069l32.089-57.933h35.673v150.221h-31.207v-43.904c0-22.515 0.666-42.803 2.893-62.643h-0.679c-6.669 16.935-15.59 35.673-24.512 51.495l-31.207 55.040h-39.68v-150.221h31.194v45.248zM284.275 128.115c0-17.37 13.146-33.447 35.2-33.447 12.941 0 24.077 4.672 31.207 13.401h0.691l1.984-10.931h30.553c-1.127 6.003-1.575 16.026-1.575 26.509v37.901c0 25.613-11.571 47.040-47.911 47.040-19.853 0-34.777-5.351-42.355-9.613l6.208-21.837c7.168 4.48 18.957 8.269 30.118 8.269 16.717 0 19.84-8.269 19.84-14.029v-1.575c-38.567 0.205-63.962-13.376-63.962-41.69zM349.351 148.621v-11.827c0-1.997-0.217-4.019-0.666-5.798-2.24-6.912-9.152-12.48-17.587-12.48-7.603 0-13.401 4.224-13.401 12.928 0 13.159 13.824 17.382 31.654 17.178zM297.395 336.371h-0.256l-15.207-7.219-3.059 13.965 21.069 9.792h15.45v-79.629h-18.010v63.091zM359.232 336.371h-0.243l-15.207-7.219-3.059 13.965 21.082 9.792h15.437v-79.629h-18.022v63.091z" />
</font>
</defs>
</svg>
