<?xml version="1.0" standalone="no"?>
<!DOCTYPE svg PUBLIC "-//W3C//DTD SVG 1.1//EN" "http://www.w3.org/Graphics/SVG/1.1/DTD/svg11.dtd" >
<svg xmlns="http://www.w3.org/2000/svg">
<metadata>Generated by IcoMoon</metadata>
<defs>
<font id="psfonticons" horiz-adv-x="1024">
<font-face units-per-em="1024" ascent="960" descent="-64" />
<missing-glyph horiz-adv-x="1024" />
<glyph unicode="&#x20;" horiz-adv-x="512" d="" />
<glyph unicode="&#xe600;" glyph-name="stoptoggle-off" d="M783.667 938.803h-553.242c-62.106 0-112.512-50.406-112.512-112.538v-752.128c0-62.234 50.406-112.538 112.512-112.538h553.242c62.182 0 112.538 50.304 112.538 112.538v752.128c0 62.131-50.355 112.538-112.538 112.538zM563.302 129.69h-112.486v299.853h112.486v-299.853zM507.264 507.955l-168.96 262.784h337.51l-168.55-262.784z" />
<glyph unicode="&#xe601;" glyph-name="stoptoggle-on" d="M675.814 771.277h-337.562l168.96-262.784zM450.765 430.131h112.538v-299.878h-112.538v299.878z" />
<glyph unicode="&#xe602;" glyph-name="home" d="M904.346 448.998l-390.426 323.2-392.755-323.354 53.376-0.486 339.226 278.118 337.254-276.838zM795.11 450.355v-334.31h-564.275v334.31l282.931 228.71 281.344-228.71zM701.005 460.8h-125.312v-313.37h125.312v313.37zM513.101 460.8h-188.186v-156.57h188.186v156.57zM356.275 618.522l-94.080-74.675v199.219h94.080z" />
<glyph unicode="&#xe603;" glyph-name="arrow-left" d="M585.574 741.581c-21.402-20.89-230.502-240.435-230.502-240.435-11.418-11.162-17.101-25.754-17.101-40.346s5.683-29.184 17.101-40.346c0 0 209.101-219.546 230.502-240.384 21.402-20.89 59.904-22.323 82.739 0 22.784 22.272 24.576 53.35-0.051 80.64l-191.846 200.090 191.846 200.090c24.627 27.341 22.835 58.419 0.051 80.691-22.886 22.272-61.389 20.89-82.739 0z" />
<glyph unicode="&#xe604;" glyph-name="arrow-down" d="M792.73 534.374c-20.838-21.402-240.384-230.554-240.384-230.554-11.162-11.418-25.754-17.101-40.346-17.101-14.643 0-29.235 5.683-40.346 17.101 0 0-219.546 209.152-240.435 230.554-20.838 21.402-22.272 59.853 0 82.739 22.323 22.835 53.402 24.627 80.691 0l200.090-191.898 200.038 191.846c27.341 24.627 58.47 22.835 80.691 0 22.323-22.835 20.941-61.338 0-82.688z" />
<glyph unicode="&#xe605;" glyph-name="arrow-up" d="M792.73 387.226c-20.838 21.402-240.384 230.502-240.384 230.502-11.162 11.418-25.754 17.152-40.346 17.152-14.643 0-29.235-5.734-40.346-17.152 0 0-219.546-209.101-240.435-230.502-20.838-21.402-22.272-59.904 0-82.739 22.323-22.784 53.402-24.627 80.691 0l200.090 191.846 200.038-191.846c27.341-24.627 58.47-22.784 80.691 0 22.323 22.886 20.941 61.389 0 82.739z" />
<glyph unicode="&#xe606;" glyph-name="arrow-right" d="M438.426 741.581c21.402-20.89 230.502-240.435 230.502-240.435 11.469-11.162 17.152-25.754 17.152-40.346s-5.683-29.184-17.152-40.346c0 0-209.101-219.546-230.502-240.384-21.402-20.89-59.853-22.323-82.739 0-22.835 22.272-24.627 53.35 0 80.64l191.898 200.090-191.846 200.090c-24.627 27.341-22.835 58.419 0 80.691s61.338 20.89 82.688 0z" />
<glyph unicode="&#xe607;" glyph-name="cross-close" d="M734.669 299.418l-141.21 161.382 141.21 161.382c24.013 24.013 24.013 62.925 0 86.886-24.013 23.962-62.925 23.962-86.886 0l-135.782-155.187-135.731 155.136c-24.013 24.013-62.925 24.013-86.886 0-23.962-24.013-23.962-62.925 0-86.886l141.158-161.331-141.21-161.382c-23.962-24.013-23.962-62.822 0-86.784 24.013-24.013 62.925-24.013 86.886 0l135.782 155.085 135.731-155.085c24.013-24.013 62.925-24.013 86.886 0s24.013 62.771 0.051 86.784z" />
<glyph unicode="&#xe608;" glyph-name="dp-text" d="M689.843 395.699v292.89c0 34.637-28.16 62.771-62.797 62.771h-355.635c-34.637 0-62.771-28.16-62.771-62.771v-355.635c0-34.611 28.16-62.746 62.771-62.746h292.89c0-69.35 56.243-125.542 125.542-125.542s125.491 56.192 125.491 125.542c0.026 69.299-56.192 125.491-125.491 125.491zM573.312 571.264h-17.254c-1.562 15.232-4.89 26.47-10.061 33.715s-10.675 11.725-16.589 13.414c-5.888 1.69-12.774 2.56-20.531 2.56h-31.181v-180.147c0-7.142 0.717-12.646 2.176-16.589 1.459-3.891 4.813-6.989 10.163-9.139 5.299-2.202 13.107-3.251 23.398-3.251v-16.691h-123.366v16.691c15.13 0 24.858 2.15 29.21 6.502 4.378 4.352 6.528 11.853 6.528 22.502v180.147h-26.138c-10.266 0-18.765-0.794-25.574-2.458-6.758-1.613-12.723-6.093-17.843-13.414-5.146-7.322-8.064-18.611-8.806-33.818h-17.254v69.837h243.123v-69.862zM752.589 249.242h-41.856v-41.856h-41.882v41.856h-41.856v41.856h41.856v41.856h41.882v-41.856h41.856v-41.856z" />
<glyph unicode="&#xe609;" glyph-name="angle" d="M306 314l286 324 100-4-278-316h320v-66h-430z" />
<glyph unicode="&#xe60a;" glyph-name="text" d="M614.4 604.902v41.856c-51.2 0-92.698-22.426-115.2-56.294-22.502 33.869-38.4 56.294-115.2 56.294v-41.856c76.8 0 76.8-37.53 76.8-83.712v-47.59h-51.2v-51.2h51.2v-47.59c0-46.208 0-83.712-76.8-83.712v-41.856c76.8 0 92.698 22.4 115.2 56.294 22.502-33.894 64-56.294 115.2-56.294v41.856c-51.2 0-76.8 37.504-76.8 83.712v47.59h51.2v51.2h-51.2v47.616c0 46.182 25.6 83.686 76.8 83.686z" />
<glyph unicode="&#xe60b;" glyph-name="degree" d="M512 572c70 0 128-56 128-126s-58-126-128-126-126 56-126 126 56 126 126 126zM512 386c32 0 58 28 58 60s-26 60-58 60-58-28-58-60c0-34 26-60 58-60z" />
<glyph unicode="&#xe60c;" glyph-name="approximate" d="M580 514c28 0 34 28 36 58h62c-6-70-30-116-102-116-48 0-76 38-108 52-8 4-14 6-20 6-28 0-36-24-38-56h-60c4 70 30 116 100 116 34 0 52-14 78-34 16-12 28-18 34-22s12-4 18-4zM678 430c-6-70-30-114-102-114-48 0-76 38-108 52-8 4-14 6-20 6-28 0-36-26-38-58h-60c4 70 30 118 100 118 34 0 52-14 78-34 16-12 26-18 32-22 6-2 14-4 20-4 30 0 34 26 36 56h62z" />
<glyph unicode="&#xe60d;" glyph-name="divide" d="M688 412h-336v66h336v-66zM562 530h-84v80h84v-80zM562 280h-84v80h84v-80z" />
<glyph unicode="&#xe60e;" glyph-name="erase" d="M703.411 243.2h-436.838c-6.682 0-12.109-6.118-12.109-12.8 0-6.656 5.427-12.8 12.109-12.8h436.864c6.656 0 12.109 6.118 12.109 12.8s-5.555 12.8-12.134 12.8zM765.21 530.483l-146.893 146.867c-10.854 10.906-30.694 10.394-42.214-1.126l-260.378-260.352c-5.632-5.683-8.934-13.030-9.318-20.787-0.358-8.115 2.637-15.949 8.192-21.555l146.867-146.842c4.813-4.813 10.906-7.398 17.562-7.398 7.808 0 15.846 3.738 22.707 10.547l260.378 260.403c5.402 5.453 8.909 11.597 10.112 17.894 1.536 8.346-0.947 16.307-7.014 22.349zM478.438 263.194l-130.125 128.538c-1.894 1.894-2.022 5.146-0.589 8.090l120.448 120.474 141.082-137.805-120.448-120.499c-0.179 0.102-6.042-4.352-10.368 1.203z" />
<glyph unicode="&#xe60f;" glyph-name="arrow-right-bar" d="M652 284v118h-434v80h434v118l158-158z" />
<glyph unicode="&#xe610;" glyph-name="greater-than" d="M668 454l-302-98v66l212 62-212 64v64l302-96v-62zM668 278h-302v60h302v-60z" />
<glyph unicode="&#xe611;" glyph-name="less-than" d="M668 356l-302 98v60l302 98v-64l-212-64 212-64v-64zM668 278h-302v60h302v-60z" />
<glyph unicode="&#xe612;" glyph-name="line-tool" d="M749.85 682.522c0.051 6.938-2.048 14.106-12.058 24.166-16.102 16.128-49.050 22.912-86.144 22.912h-33.203c-47.104 0-102.093-13.414-102.349-50.33l-4.096-60.928v-265.677c0-3.61 5.12-27.904 6.938-31.053l80.512-155.213h-309.709c-8.653 0-15.693-4.122-15.693-12.8 0-8.653 7.040-12.8 15.693-12.8h311.706c5.094 0 9.395 20.378 12.262 24.090l3.251 3.251c3.738-6.554 10.65-6.118 18.202-6.118 7.501 0 14.438 6.298 18.202 12.826l93.901 166.349c1.741 3.149 2.688 7.296 2.688 10.906l-0.102 330.419zM658.15 243.2h-46.003l-48.102 97.229 32.947 26.701 32.205-16.102c3.354-1.997 7.45-0.282 10.803 1.715l32.538 20.352 33.459-33.562-47.846-96.333zM691.2 601.6h-128.998l-0.102 65.331c4.557 4.608 24.499 21.069 56.397 21.069l15.488 3.123c31.744 0 57.165-16.614 57.165-21.222l0.051-68.301z" />
<glyph unicode="&#xe613;" glyph-name="dot" d="M580 376h-132v138h132v-138z" />
<glyph unicode="&#xe614;" glyph-name="pie" d="M646 570v-194c0-56 4-86 10-104h-62c-6 10-10 40-10 96v202h-114c-2-92-24-240-50-298h-60c26 68 48 206 50 298-28 0-54 0-72-6l-8 36c16 10 44 20 100 20h270l-6-50h-48z" />
<glyph unicode="&#xe615;" glyph-name="text-2" d="M428 310c24 2 48 2 48 28v242h-10c-36 0-44 0-62-26-10-16-18-28-22-42h-18v88h298v-88h-16c-6 18-30 64-50 66-8 2-24 2-34 2h-10v-240c0-26 24-28 48-30v-18h-172v18z" />
<glyph unicode="&#xe616;" glyph-name="resize-text" d="M497.363 243.078c35.129 2.93 70.258 2.93 70.258 40.983v354.22h-14.637c-52.693 0-64.405 0-90.752-38.057-14.637-23.42-26.349-40.983-32.203-61.477h-23.42v128.807h433.26v-128.807h-23.42c-8.785 26.349-40.983 93.679-70.258 96.607-11.708 2.93-38.057 2.93-52.693 2.93h-14.637v-351.296c0-38.057 35.129-40.983 70.258-43.912v-26.349h-251.761v26.349zM239.748 234.296c23.42 2.93 46.84 0 46.84 26.349v234.196h-11.708c-35.129 0-40.983 0-58.547-26.349-8.785-14.637-17.565-26.349-20.491-38.057h-17.565v81.969h286.89v-81.969h-14.637c-5.853 17.565-26.349 58.547-46.84 61.477-8.785 0-26.349 2.93-35.129 2.93h-8.785v-231.269c0-23.42 20.491-26.349 43.912-29.276v-14.637h-163.937v14.637z" />
<glyph unicode="&#xe617;" glyph-name="undo" d="M526.259 201.293c6.938-8.499 46.899 13.901 63.565 25.344 40.755 28.109 95.053 61.542 131.2 117.402 73.856 114.125-0.333 202.266-58.163 228.813-67.149 30.771-149.888 35.277-149.888 35.277l6.656 55.066c0 0 4.198 24.806-1.946 31.949-3.2 3.738-22.963-0.538-34.048-5.555-51.2-23.194-56.576-25.754-136.806-66.406-60.006-30.413-77.594-44.8-74.394-67.2 1.382-9.651 16.256-29.389 83.2-71.987 70.4-44.8 137.907-82.15 141.312-83.302 16-5.299 13.133 28.288 13.133 28.288l-1.587 64.973c0 0 104.448 1.766 131.149-53.171 13.235-27.162 17.152-66.355-31.206-135.987-11.981-17.254-29.005-37.402-39.552-47.795-21.274-20.992-49.587-47.206-42.624-55.706z" />
<glyph unicode="&#xe618;" glyph-name="square-root" d="M718 676l-202-462h-40l-102 220h-54v48h112l76-170 158 364h52z" />
<glyph unicode="&#xe619;" glyph-name="redo" d="M497.766 201.293c-6.938-8.499-46.95 13.901-63.59 25.344-40.755 28.109-95.053 61.542-131.2 117.402-73.856 114.125 0.307 202.266 58.189 228.813 67.123 30.771 149.888 35.277 149.888 35.277l-6.656 55.066c0 0-4.198 24.806 1.946 31.949 3.2 3.738 22.963-0.538 34.074-5.555 51.2-23.194 56.602-25.754 136.832-66.406 60.006-30.413 77.568-44.8 74.368-67.2-1.357-9.651-16.256-29.389-83.2-71.987-70.4-44.8-137.907-82.15-141.312-83.302-16-5.299-13.133 28.288-13.133 28.288l1.587 64.973c0 0-104.422 1.766-131.149-53.171-13.21-27.162-17.152-66.355 31.206-135.987 11.981-17.254 29.005-37.402 39.552-47.795 21.248-20.992 49.536-47.206 42.598-55.706z" />
<glyph unicode="&#xe61a;" glyph-name="unequal" d="M660 362h-150l-34-80h-62l34 80h-76v60h102l24 56h-126v60h150l30 74h62l-30-74h76v-60h-102l-24-56h126v-60z" />
<glyph unicode="&#xe61b;" glyph-name="trash" d="M332.8 281.062c0-33.050 14.003-89.062 47.155-89.062h262.4c35.738 0 48.845 58.112 48.845 89.062v218.138h-358.4v-218.138zM563.2 469.709c0 10.368 15.206 18.79 25.6 18.79s25.6-8.422 25.6-18.79v-188.288c0-10.394-15.206-18.816-25.6-18.816s-25.6 8.422-25.6 18.816v188.288zM486.4 469.709c0 10.368 15.206 18.79 25.6 18.79s25.6-8.422 25.6-18.79v-188.288c0-10.394-15.206-18.816-25.6-18.816s-25.6 8.422-25.6 18.816v188.288zM409.6 469.709c0 10.368 15.181 18.79 25.6 18.79s25.6-8.422 25.6-18.79v-188.288c0-10.394-15.181-18.816-25.6-18.816s-25.6 8.422-25.6 18.816v188.288zM696.294 627.2h-81.894v27.904c0 5.197-12.8 23.296-16 23.296h-172.8c-3.2 0-16-18.099-16-23.296v-27.904h-81.92c-12.723 0-20.48 6.323-20.48-6.4v-69.12c0-12.723 7.757-26.88 20.48-26.88h368.614c12.749 0 20.506 14.157 20.506 26.88v69.12c0 12.723-7.757 6.4-20.506 6.4z" />
<glyph unicode="&#xe61c;" glyph-name="arrow-right-2" d="M364 700l304-254-304-252v506z" />
<glyph unicode="&#xe61d;" glyph-name="arrow-left-2" d="M668 194l-304 252 304 254v-506z" />
<glyph unicode="&#xe61e;" glyph-name="print-lines" d="M808 548c22-24 16-58 16-58v-124h-102l-16 62h-386l-16-62h-104v124s-4 32 18 58 60 24 60 24h116s-76-28-76-114v-6h390v6c0 86-76 114-76 114h114s40 2 62-24zM426 736h172v-204h-172v204zM364 378h300l64-228h-428zM410 348l-10-38h222l-12 38h-200zM390 288l-16-44h272l-16 44h-240zM358 186h302l-10 34h-282z" />
<glyph unicode="&#xe61f;" glyph-name="checkmark-2" d="M812 606l-394-392-206 204 76 76 130-130 318 318z" />
<glyph unicode="&#xe620;" glyph-name="arrow-chevron-right" d="M362 664h140l162-220-162-220h-140l166 220z" />
<glyph unicode="&#xe621;" glyph-name="arrow-chevron-left" d="M664 224h-140l-162 220 162 220h140l-166-220z" />
<glyph unicode="&#xe622;" glyph-name="draw-tool" d="M793.549 686.259c0.051 6.938-2.048 18.509-12.058 28.57-16.102 16.154-49.050 27.29-86.118 27.29h-33.203c-47.13 0-101.12-17.792-101.376-54.707l-3.149-65.331v-265.651c0-3.61 4.147-27.827 5.939-30.95l64.512-122.086c-3.738-10.112-27.238-12.262-38.938 14.387-16.896 38.246-29.901 90.138-81.075 91.034-48.486 1.152-70.938-21.043-78.387-89.882-2.842-26.317-24.422-22.579-27.878 9.293-5.606 52.454-33.997 84.531-75.955 85.837-29.645 0.947-53.146-7.117-69.658-23.885-28.493-28.902-26.496-74.214-25.395-98.637 0.128-3.251 0.256-6.067 0.282-8.499 0.077-11.52 9.549-21.632 21.094-20.685 11.571 0.102 20.813 9.549 20.736 21.12 0 2.765-0.154 6.144-0.307 9.933-0.87 19.251-2.304 51.507 13.389 67.405 8.090 8.192 20.608 11.853 38.605 11.392 25.19-0.742 33.306-26.778 35.61-48.461 5.99-55.654 37.965-70.374 56.115-69.862 18.15 0.538 40.832 20.045 47.386 61.44 6.861 43.366 22.707 52.019 43.674 51.686 20.019-0.41 29.184-34.714 37.658-55.45 9.677-23.68 22.938-36.25 32.896-42.778 29.338-19.2 71.194-6.067 86.784-0.563 3.763-2.586 8.883-2.406 14.413-2.406 7.552 0 14.336 6.298 18.048 12.851l93.85 166.349c1.741 3.149 2.662 7.219 2.662 10.906l-0.154 330.342zM605.824 675.072c4.531 4.608 24.474 18.867 56.371 18.867l16.512 2.022c31.744 0 58.138-17.69 58.138-22.298v-59.546h-130.918l-0.102 60.954zM701.85 255.718h-46.003l-48.077 92.851 32.922 24.499 32.205-17.229c3.354-1.971 7.475-0.794 10.803 1.203l32.538 20.045 33.485-29.286-47.872-92.083z" />
<glyph unicode="&#xe623;" glyph-name="arrow-play" d="M328 750l368-306-368-304v610z" />
<glyph unicode="&#xe624;" glyph-name="pause" d="M298 704h158v-518h-158v518zM578 704h160v-518h-160v518z" />
<glyph unicode="&#xe625;" glyph-name="close, x" d="M732 654v-78l-136-136 136-138v-76h-76l-138 136-136-136h-78v74l136 140-136 136v78h78l136-138 138 138h76z" />
<glyph unicode="&#xe626;" glyph-name="volume-on" d="M212 576h162l128 132v-528l-124 128h-166v268zM596 576c28-36 46-80 46-130 0-48-18-92-46-128l-36 36c20 26 30 58 30 92s-12 68-32 94zM660 638c44-52 70-120 70-192s-26-138-70-190l-36 36c34 42 54 96 54 154s-20 114-54 156zM722 698c60-68 96-156 96-252s-34-184-94-250l-36 36c50 58 80 132 80 214s-32 158-82 216z" />
<glyph unicode="&#xe627;" glyph-name="close-caption-on" d="M404 504c0 58-6 84-38 84-38 0-40-34-40-140 0-120 2-150 42-150 34 0 40 40 40 102h92v-14c0-86-24-152-142-152-122 0-130 90-130 212 0 104 4 206 138 206 84 0 130-36 130-130v-18h-92zM706 504c0 58-6 84-38 84-38 0-40-34-40-140 0-120 2-150 42-150 34 0 40 40 40 102h92v-14c0-86-24-152-142-152-122 0-130 90-130 212 0 104 6 206 140 206 84 0 128-36 128-130v-18h-92z" />
<glyph unicode="&#xe628;" glyph-name="close-caption-off" d="M786 110h-536c-84 0-154 70-154 154v358c0 84 70 154 154 154h536c84 0 154-70 154-154v-358c0-84-70-154-154-154zM400 382c0-62-6-102-40-102-40 0-44 30-44 150 0 106 4 142 42 142 32 0 38-26 38-84h90v16c0 94-44 132-128 132-134 0-140-104-140-208 0-122 8-210 130-210 118 0 142 64 142 150v14h-90zM706 382c0-62-6-102-40-102-40 0-42 30-42 150 0 106 2 142 40 142 32 0 38-26 38-84h92v16c0 94-44 132-128 132-134 0-140-104-140-208 0-122 8-210 130-210 118 0 142 64 142 150v14h-92z" />
<glyph unicode="&#xe629;" glyph-name="fullscreen" d="M742 486v-254c0-40-30-72-70-72h-366c-40 0-72 32-72 72v366c0 40 32 70 72 70h260l-62-62h-208v-384h384v204zM594 736h224v-224l-78 78-242-242-68 70 242 242c-26 26-52 50-78 76z" />
<glyph unicode="&#xe62a;" glyph-name="exit-fullscreen" d="M762 518v-256c0-40-30-72-70-72h-366c-40 0-72 32-72 72v366c0 40 32 72 72 72h260l-62-62h-208v-386h384v204zM608 316h-222v222l76-76 242 242 70-70-242-242z" />
<glyph unicode="&#xe62b;" glyph-name="info, i" d="M576 240c0-62 6-66 76-72v-28h-274v28c68 6 74 10 74 72v180c0 58-6 62-64 70v24c64 6 130 18 188 34v-308zM570 672c0-42-36-78-78-78s-78 36-78 78 36 76 78 76 78-34 78-76z" />
<glyph unicode="&#xe62c;" glyph-name="zoom-in" d="M772 268l-74-74-142 142c-28-16-62-26-98-26-108 0-196 88-196 196s88 196 196 196 194-88 194-196c0-34-8-66-24-94zM324 506c0-74 60-132 134-132s132 58 132 132-58 134-132 134-134-60-134-134zM544 528v-48h-62v-62h-48v62h-62v48h62v64h48v-64h62z" />
<glyph unicode="&#xe62d;" glyph-name="volume-off" d="M232 586h166l136 140v-558l-132 138-170-2v282zM794 538v-36l-66-64 66-66v-36h-36l-66 66-64-66h-38v36l66 66-66 64v36h38l64-64 66 64h36z" />
<glyph unicode="&#xe62e;" glyph-name="zoom out" d="M770 268l-74-74-142 144c-28-16-62-26-98-26-108 0-196 86-196 194s88 196 196 196 196-88 196-196c0-34-8-66-24-94zM324 506c0-74 58-132 132-132s134 58 134 132-60 134-134 134-132-60-132-134zM370 530h174v-48h-174v48z" />
<glyph unicode="&#xe62f;" glyph-name="print-3" d="M78 628c-18 0-24 6-22 22 2 6 6 14 12 16 2 0 18 4 50 16s62 24 94 34 52 14 60 14h46v154h388v-154h48c8 0 28-4 58-14s62-22 94-34 48-16 50-16c12-6 16-16 12-28-2-6-10-10-20-10h-870zM10 510c0 28 30 60 58 60h890c28 0 56-32 56-60v-178c0-28-28-62-56-62h-102l46-256h-780l46 256h-100c-28 0-58 34-58 62v178zM226 116h572l-70 332h-432l-70-332z" />
<glyph unicode="&#xe630;" glyph-name="correct-circle" d="M742 496l-240-242c-8-8-16-10-26-10s-18 2-26 10l-168 168c-8 8-12 16-12 26s4 18 12 26l58 58c8 8 16 10 26 10s18-2 26-10l84-84 156 158c8 8 16 10 26 10s18-2 26-10l58-60c8-8 12-14 12-24s-4-18-12-26zM822 448c0 126-70 222-154 270-48 28-100 40-156 40-126 0-222-70-270-154-28-48-40-100-40-156 0-126 70-222 154-270 48-28 100-40 156-40 126 0 222 70 270 154 28 48 40 100 40 156zM950 448c0-176-100-310-218-380-68-40-140-58-220-58-176 0-310 100-380 218-40 68-58 140-58 220 0 176 100 310 218 380 68 40 140 58 220 58 176 0 310-100 380-218 40-68 58-140 58-220z" />
<glyph unicode="&#xe631;" glyph-name="incorrect-circle" d="M700 344l-84-84c-4-4-8-6-12-6s-10 2-14 6l-78 78-78-78c-4-4-10-6-14-6s-8 2-12 6l-84 84c-4 4-6 8-6 12s2 10 6 14l78 78-78 78c-4 4-6 10-6 14s2 8 6 12l84 84c4 4 8 6 12 6s10-2 14-6l78-78 78 78c4 4 10 6 14 6s8-2 12-6l84-84c4-4 6-8 6-12s-2-10-6-14l-78-78 78-78c4-4 6-10 6-14s-2-8-6-12zM822 448c0 126-70 222-154 270-48 28-100 40-156 40-126 0-222-70-270-154-28-48-40-100-40-156 0-126 70-222 154-270 48-28 100-40 156-40 126 0 222 70 270 154 28 48 40 100 40 156zM950 448c0-176-100-310-218-380-68-40-140-58-220-58-176 0-310 100-380 218-40 68-58 140-58 220 0 176 100 310 218 380 68 40 140 58 220 58 176 0 310-100 380-218 40-68 58-140 58-220z" />
<glyph unicode="&#xe632;" glyph-name="settings" d="M342 312c74 0 136 62 136 136s-62 136-136 136-138-62-138-136 64-136 138-136zM820 106c38 0 68 30 68 68 0 36-32 70-68 70s-70-34-70-70c0-38 32-68 70-68zM820 652c38 0 68 32 68 70 0 36-32 68-68 68s-70-32-70-68c0-38 32-70 70-70zM682 496v-98c0-6-6-16-12-16l-82-12c-4-12-10-28-18-42 12-18 28-36 48-60 2-4 4-8 4-12s-2-8-4-10c-8-10-70-80-86-80-4 0-6 2-10 4l-62 48c-14-6-26-12-40-16-4-38-10-66-14-82-2-8-8-14-16-14h-98c-8 0-16 6-16 14l-12 82c-12 4-26 8-40 16l-64-48c-2-2-6-4-10-4s-8 4-12 6c-52 48-76 74-76 84 0 4 2 6 4 10 8 10 38 52 46 62-8 16-14 30-18 44l-82 12c-8 0-12 8-12 16v98c0 6 6 16 12 16l82 12c4 12 10 28 18 42-12 18-28 36-48 60-2 4-4 8-4 12s2 8 4 10c8 10 70 80 86 80 4 0 8-2 12-4l60-48c12 6 26 12 42 16 4 38 8 66 12 82 2 8 8 14 16 14h98c8 0 16-6 16-14l14-82c12-4 26-8 40-16l62 48c2 2 6 4 10 4s8-4 12-6c52-48 76-74 76-84 0-4 0-6-2-10-8-10-40-50-48-62 8-18 14-32 18-44l82-12c6-2 12-8 12-16zM750 372c8 0 50-58 54-62 8 0 12 2 16 2s8-2 16-2c18 26 34 46 48 60l4 2c2 0 24-14 66-38 2-2 2-2 2-4 0-8-10-34-28-74 6-8 12-18 16-28 52-6 80-10 80-16v-74c0-6-28-10-80-16-4-10-10-20-16-28 18-40 28-66 28-74 0-2 0-2-2-4-44-26-66-38-66-38-8 0-48 58-52 62-8 0-12-2-16-2s-8 2-16 2c-4-4-46-62-54-62 0 0-22 12-66 38-2 2-2 2-2 4 0 8 10 34 28 74-6 8-12 18-16 28-52 6-80 10-80 16v74c0 6 28 10 80 16 4 10 10 20 16 28-18 40-28 66-28 74 0 6 10 6 22 14 12 6 20 12 30 18s16 10 16 10zM750 918c8 0 50-58 54-62 8 0 12 2 16 2s8-2 16-2c18 26 34 46 48 60l4 2c2 0 24-14 66-38 2-2 2-2 2-4 0-8-10-34-28-74 6-8 12-18 16-28 52-6 80-10 80-16v-74c0-6-28-10-80-16-4-10-10-20-16-28 18-40 28-66 28-74 0-2 0-2-2-4-44-26-66-38-66-38-8 0-48 58-52 62-8 0-12-2-16-2s-8 2-16 2c-4-4-46-62-54-62 0 0-22 12-66 38-2 2-2 2-2 4 0 8 10 34 28 74-6 8-12 18-16 28-52 6-80 10-80 16v74c0 6 28 10 80 16 4 10 10 20 16 28-18 40-28 66-28 74 0 6 10 6 22 14 12 6 20 12 30 18s16 10 16 10z" />
<glyph unicode="&#xe633;" glyph-name="pencil" d="M280 82l52 52-134 134-52-52v-60h74v-74h60zM580 612c0 8-6 14-14 14-4 0-6-2-8-4l-310-310c-2-2-4-6-4-10 0-8 4-12 12-12 4 0 8 2 10 4l310 308c2 2 4 6 4 10zM548 722l238-238-476-474h-236v236zM938 668c0-20-6-38-20-52l-96-94-236 236 94 96c14 14 32 20 52 20s38-6 52-20l134-134c14-14 20-32 20-52z" />
<glyph unicode="&#xe634;" glyph-name="star" d="M232 34c-16 0-24 14-24 30 0 2 2 4 2 10l48 286-208 202c-10 10-14 20-14 28 0 14 10 22 32 26l288 42 128 260c8 16 16 24 28 24s20-8 28-24l128-260 288-42c22-4 32-12 32-26 0-8-6-18-16-28l-206-202 48-286v-10c0-16-6-30-22-30-8 0-16 4-24 8l-256 134-256-134c-8-4-18-8-24-8z" />
<glyph unicode="&#xe635;" glyph-name="randomize" d="M0 796c0 10 8 18 18 18h128c96 0 174-42 234-128-22-36-48-88-78-156-18 34-22 46-44 76-24 34-56 62-112 62h-128c-10 0-18 8-18 18v110zM804 412c0 10 8 18 18 18 4 0 10-2 14-6l182-182c4-4 6-8 6-14s-2-8-6-12l-182-184c-4-4-8-4-14-4-10 0-18 8-18 18v110c-58 0-124-4-176 2-20 2-58 8-74 16s-48 24-66 40c-22 20-46 44-64 70 22 36 48 88 78 156 18-34 22-48 44-78 24-34 56-60 112-60h146v110zM804 924c0 10 8 18 18 18 4 0 10-2 14-6l182-182c4-4 6-8 6-14s-2-8-6-12l-182-184c-4-4-8-4-14-4-10 0-18 8-18 18v110h-146c-82 0-116-58-144-114-42-84-84-206-140-278-22-30-60-70-94-88s-82-32-134-32h-128c-10 0-18 8-18 18v110c0 10 8 18 18 18h128c82 0 116 58 144 114 42 84 84 206 140 278 22 30 60 68 94 86s82 34 134 34h146v110z" />
<glyph unicode="&#xe636;" glyph-name="reset" d="M210 766c70 66 174 120 302 120 132 0 240-58 310-128s128-178 128-310-58-240-128-310-178-128-310-128c-148 0-266 70-338 158-6 8-4 18 2 24l78 78c4 4 8 6 14 6s12-2 14-6c48-62 126-114 230-114 88 0 160 40 206 86s86 118 86 206-40 160-86 206-118 86-206 86c-84 0-152-34-198-78l78-78c24-24 4-62-26-62h-256c-20 0-36 16-36 36v256c0 30 38 50 62 26z" />
<glyph unicode="&#xe637;" glyph-name="incorrect-x" d="M852 204c0-16-6-28-16-38l-78-78c-10-10-24-16-40-16s-28 6-38 16l-168 168-168-168c-10-10-22-16-38-16s-30 6-40 16l-78 78c-10 10-16 22-16 38s6 30 16 40l168 168-168 168c-10 10-16 22-16 38s6 30 16 40l78 76c10 10 24 16 40 16s28-6 38-16l168-168 168 168c10 10 22 16 38 16s30-6 40-16l78-76c10-10 16-24 16-40s-6-28-16-38l-168-168 168-168c10-10 16-24 16-40z" />
<glyph unicode="&#xe638;" glyph-name="list" d="M202 302c10 0 18-8 18-18v-38c0-10-8-18-18-18h-38c-10 0-18 8-18 18v38c0 10 8 18 18 18h38zM202 448c10 0 18-8 18-18v-36c0-10-8-20-18-20h-38c-10 0-18 10-18 20v36c0 10 8 18 18 18h38zM202 594c10 0 18-8 18-18v-36c0-10-8-18-18-18h-38c-10 0-18 8-18 18v36c0 10 8 18 18 18h38zM860 302c10 0 18-8 18-18v-38c0-10-8-18-18-18h-550c-10 0-18 8-18 18v38c0 10 8 18 18 18h550zM860 448c10 0 18-8 18-18v-36c0-10-8-20-18-20h-550c-10 0-18 10-18 20v36c0 10 8 18 18 18h550zM860 594c10 0 18-8 18-18v-36c0-10-8-18-18-18h-550c-10 0-18 8-18 18v36c0 10 8 18 18 18h550zM932 156c10 0 18 8 18 18v476c0 10-8 18-18 18h-840c-10 0-18-8-18-18v-476c0-10 8-18 18-18h840zM932 886c50 0 92-40 92-90v-622c0-50-42-92-92-92h-840c-50 0-92 42-92 92v622c0 50 42 90 92 90h840z" />
<glyph unicode="&#xe639;" glyph-name="plus-circle" d="M732 374c20 0 36 18 36 38v72c0 20-16 38-36 38h-146v146c0 20-18 36-38 36h-72c-20 0-38-16-38-36v-146h-146c-20 0-36-18-36-38v-72c0-20 16-38 36-38h146v-146c0-20 18-36 38-36h72c20 0 38 16 38 36v146h146zM950 448c0-176-100-310-218-380-68-40-140-58-220-58-176 0-310 100-380 218-40 68-58 140-58 220 0 176 100 310 218 380 68 40 140 58 220 58 176 0 310-100 380-218 40-68 58-140 58-220z" />
<glyph unicode="&#xe63a;" glyph-name="plus-square" d="M768 374c20 0 36 18 36 38v72c0 20-16 38-36 38h-182v182c0 20-18 36-38 36h-72c-20 0-38-16-38-36v-182h-182c-20 0-36-18-36-38v-72c0-20 16-38 36-38h182v-182c0-20 18-36 38-36h72c20 0 38 16 38 36v182h182zM786 886c90 0 164-74 164-164v-548c0-90-74-164-164-164h-548c-90 0-164 74-164 164v548c0 90 74 164 164 164h548z" />
<glyph unicode="&#xe63b;" glyph-name="minus-square" d="M768 374c20 0 36 18 36 38v72c0 20-16 38-36 38h-512c-20 0-36-18-36-38v-72c0-20 16-38 36-38h512zM786 886c90 0 164-74 164-164v-548c0-90-74-164-164-164h-548c-90 0-164 74-164 164v548c0 90 74 164 164 164h548z" />
<glyph unicode="&#xe63c;" glyph-name="ps-periodic" d="M120.192 839.68v-787.072h787.123v787.072h-787.123zM846.003 113.946h-664.499v664.397h664.499v-664.397zM339.738 284.749c0 48.998-0.845 91.366-2.662 131.072l1.331 0.461c14.72-35.2 34.33-74.010 52.173-106.138l64.179-115.866h71.347v300.442h-62.413v-87.808c0-45.030 1.331-85.606 5.786-125.286h-1.357c-13.338 33.869-31.181 71.347-49.024 102.989l-62.413 110.080h-79.36v-300.442h62.387v90.496zM568.55 256.23c0-34.739 26.291-66.893 70.4-66.893 25.882 0 48.154 9.344 62.413 26.803h1.382l3.968-21.862h61.107c-2.253 12.006-3.149 32.051-3.149 53.018v75.802c0 51.226-23.142 94.080-95.821 94.080-39.706 0-69.555-10.701-84.71-19.226l12.416-43.674c14.336 8.96 37.914 16.538 60.237 16.538 33.434 0 39.68-16.538 39.68-28.058v-3.149c-77.133 0.41-127.923-26.752-127.923-83.379zM698.701 297.242v-23.654c0-3.994-0.435-8.038-1.331-11.597-4.48-13.824-18.304-24.96-35.174-24.96-15.206 0-26.803 8.448-26.803 25.856 0 26.317 27.648 34.765 63.309 34.355zM594.79 672.742h-0.512l-30.413-14.438-6.118 27.93 42.138 19.584h30.899v-159.258h-36.019v126.182zM718.464 672.742h-0.486l-30.413-14.438-6.118 27.93 42.163 19.584h30.874v-159.258h-36.045v126.182z" />
<glyph unicode="&#xe63d;" glyph-name="minus-circle" d="M512 890.88c-237.568 0-430.080-192.614-430.080-430.080 0-237.568 192.563-430.080 430.080-430.080s430.080 192.563 430.080 430.080c0 237.517-192.563 430.080-430.080 430.080zM770.56 513.126v-104.704h-517.12v104.704h517.12z" />
<glyph unicode="&#xe63e;" glyph-name="correct-check" d="M864 832l-480-480-224 224-160-160 384-384 640 640z" />
<glyph unicode="&#xe63f;" glyph-name="ps-glossary" d="M835.149 601.984c-12.954 1.894-25.958 3.328-38.938 4.966 4.403-3.661 8.653-7.398 12.698-11.469 0-87.68 0-225.869 0-313.498-75.11 76.442-217.498 76.493-292.838 0.23 0-0.077 0-0.154 0-0.23-0.051 0.051-0.102 0.077-0.102 0.128-0.051-0.051-0.102-0.077-0.154-0.128 0 0.077 0 0.154 0 0.23-75.213 76.262-217.6 76.237-292.659-0.23 0 87.629 0 225.818 0 313.498 3.994 4.070 8.294 7.834 12.646 11.469-12.979-1.638-25.984-3.072-38.938-4.966-14.029-2.022-25.472-15.411-25.472-29.466 0-101.709 0-234.010 0-335.667 0-14.080 11.443-23.782 25.472-21.734 228.045 33.485 410.214 33.485 638.285 0 14.003-2.048 25.446 7.654 25.446 21.734 0 101.683 0 233.984 0 335.667 0 14.054-11.443 27.443-25.446 29.466zM515.917 621.44c-64.435 65.51-181.094 65.459-245.478-0.077 0-75.213 0-180.915 0-256.051 64.384 65.536 180.89 52.787 245.376-12.595 0-0.051 0-0.128 0-0.205 0.051 0.051 0.051 0.077 0.102 0.128 0.051-0.051 0.051-0.077 0.102-0.128 0 0.077 0 0.154 0 0.205 64.64 65.382 181.197 78.131 245.53 12.595 0 75.162 0 180.864 0 256.051-64.41 65.562-181.043 65.587-245.632 0.077z" />
<glyph unicode="&#xe640;" glyph-name="refresh_icon_rt" d="M669.594 387.635c-3.149-34.33-18.714-67.814-46.848-94.131-63.36-59.238-166.067-59.238-229.453 0-63.386 59.213-63.386 155.238 0 214.502 29.798 27.853 68.275 42.24 107.29 43.776v-102.682l214.221 124.058-214.221 143.334v-94.106c-56.32-2.56-111.846-23.654-154.88-64.179-92.083-86.63-92.083-227.098 0-313.754 92.032-86.63 241.254-86.63 333.286 0 42.291 39.834 64.922 91.034 68.352 143.155l-77.747 0.026z" />
<glyph unicode="&#xe641;" glyph-name="keyboard" d="M916.378 166.195h-757.555c-45.696 0-82.816 37.248-82.816 82.816v473.677c0 45.67 37.12 82.816 82.816 82.816h757.555c45.645 0 82.842-37.146 82.842-82.816v-473.651c0-45.594-37.248-82.842-82.842-82.842zM158.822 781.926c-32.666 0-59.213-26.598-59.213-59.213v-473.677c0-32.614 26.573-59.213 59.213-59.213h757.555c32.589-0.051 59.187 26.598 59.187 59.213v473.651c0 32.64-26.547 59.213-59.187 59.213l-757.555 0.026zM210.893 639.821h-56.781c-16.973 0-30.797 13.798-30.797 30.746v56.832c0 16.973 13.824 30.797 30.797 30.797h56.806c16.973 0 30.771-13.824 30.771-30.797v-56.832c-0.026-16.947-13.824-30.746-30.797-30.746zM154.061 734.515c-3.891 0-7.091-3.2-7.091-7.091v-56.832c0-3.814 3.2-7.066 7.091-7.066h56.806c3.84 0 7.117 3.251 7.117 7.066v56.832c0 3.891-3.277 7.091-7.117 7.091h-56.806zM352.973 639.821h-56.858c-16.973 0-30.746 13.798-30.746 30.746v56.832c0 16.973 13.798 30.797 30.746 30.797h56.858c16.973 0 30.771-13.824 30.771-30.797v-56.832c-0.026-16.947-13.824-30.746-30.771-30.746zM296.090 734.515c-3.866 0-7.091-3.2-7.091-7.091v-56.832c0-3.814 3.226-7.066 7.091-7.066h56.832c3.84 0 7.091 3.251 7.091 7.066v56.832c0 3.891-3.251 7.091-7.091 7.091h-56.832zM495.002 639.821h-56.832c-16.973 0-30.771 13.798-30.771 30.746v56.832c0 16.973 13.798 30.797 30.771 30.797h56.832c16.973 0 30.746-13.824 30.746-30.797v-56.832c0-16.947-13.773-30.746-30.746-30.746zM438.144 734.515c-3.84 0-7.117-3.2-7.117-7.091v-56.832c0-3.814 3.251-7.066 7.117-7.066h56.832c3.814 0 7.091 3.251 7.091 7.066v56.832c0 3.891-3.277 7.091-7.091 7.091h-56.832zM637.005 639.821h-56.832c-16.947 0-30.746 13.798-30.746 30.746v56.832c0 16.973 13.798 30.797 30.746 30.797h56.832c16.973 0 30.822-13.824 30.822-30.797v-56.832c0-16.947-13.85-30.746-30.822-30.746zM580.173 734.515c-3.891 0-7.091-3.2-7.091-7.091v-56.832c0-3.814 3.2-7.066 7.091-7.066h56.832c3.789 0 7.066 3.251 7.066 7.066v56.832c0 3.891-3.277 7.091-7.066 7.091h-56.832zM779.034 639.821h-56.806c-16.973 0-30.771 13.798-30.771 30.746v56.832c0 16.973 13.798 30.797 30.771 30.797h56.806c16.973 0 30.771-13.824 30.771-30.797v-56.832c0-16.947-13.798-30.746-30.771-30.746zM722.227 734.515c-3.866 0-7.117-3.2-7.117-7.091v-56.832c0-3.814 3.251-7.066 7.117-7.066h56.806c3.84 0 7.117 3.251 7.117 7.066v56.832c0 3.891-3.277 7.091-7.117 7.091h-56.806zM921.114 639.821h-56.858c-16.998 0-30.746 13.798-30.746 30.746v56.832c0 16.973 13.747 30.797 30.746 30.797h56.858c16.973 0 30.72-13.824 30.72-30.797v-56.832c0.026-16.947-13.722-30.746-30.72-30.746zM864.282 734.515c-3.866 0-7.091-3.2-7.091-7.091v-56.832c0-3.814 3.226-7.066 7.091-7.066h56.806c3.84 0 7.091 3.251 7.091 7.066v56.832c0 3.891-3.251 7.091-7.091 7.091h-56.806zM210.893 497.766h-56.781c-16.973 0-30.797 13.798-30.797 30.771v56.832c0 16.973 13.824 30.771 30.797 30.771h56.806c16.973 0 30.771-13.798 30.771-30.771v-56.832c-0.026-16.973-13.824-30.771-30.797-30.771zM154.061 592.486c-3.891 0-7.091-3.251-7.091-7.117v-56.832c0-3.84 3.2-7.091 7.091-7.091h56.806c3.84 0 7.117 3.251 7.117 7.091v56.832c0 3.866-3.277 7.117-7.117 7.117h-56.806zM352.973 497.766h-56.858c-16.973 0-30.746 13.798-30.746 30.771v56.832c0 16.973 13.798 30.771 30.746 30.771h56.858c16.973 0 30.771-13.798 30.771-30.771v-56.832c-0.026-16.973-13.824-30.771-30.771-30.771zM296.090 592.486c-3.866 0-7.091-3.251-7.091-7.117v-56.832c0-3.84 3.226-7.091 7.091-7.091h56.832c3.84 0 7.091 3.251 7.091 7.091v56.832c0 3.866-3.251 7.117-7.091 7.117h-56.832zM495.002 497.766h-56.832c-16.973 0-30.771 13.798-30.771 30.771v56.832c0 16.973 13.798 30.771 30.771 30.771h56.832c16.973 0 30.746-13.798 30.746-30.771v-56.832c0-16.973-13.773-30.771-30.746-30.771zM438.144 592.486c-3.84 0-7.117-3.251-7.117-7.117v-56.832c0-3.84 3.251-7.091 7.117-7.091h56.832c3.814 0 7.091 3.251 7.091 7.091v56.832c0 3.866-3.277 7.117-7.091 7.117h-56.832zM637.005 497.766h-56.832c-16.947 0-30.746 13.798-30.746 30.771v56.832c0 16.973 13.798 30.771 30.746 30.771h56.832c16.973 0 30.822-13.798 30.822-30.771v-56.832c0-16.973-13.85-30.771-30.822-30.771zM580.173 592.486c-3.891 0-7.091-3.251-7.091-7.117v-56.832c0-3.84 3.2-7.091 7.091-7.091h56.832c3.789 0 7.066 3.251 7.066 7.091v56.832c0 3.866-3.277 7.117-7.066 7.117h-56.832zM779.034 497.766h-56.806c-16.973 0-30.771 13.798-30.771 30.771v56.832c0 16.973 13.798 30.771 30.771 30.771h56.806c16.973 0 30.771-13.798 30.771-30.771v-56.832c0-16.973-13.798-30.771-30.771-30.771zM722.227 592.486c-3.866 0-7.117-3.251-7.117-7.117v-56.832c0-3.84 3.251-7.091 7.117-7.091h56.806c3.84 0 7.117 3.251 7.117 7.091v56.832c0 3.866-3.277 7.117-7.117 7.117h-56.806zM921.114 497.766h-56.858c-16.998 0-30.746 13.798-30.746 30.771v56.832c0 16.973 13.747 30.771 30.746 30.771h56.858c16.973 0 30.72-13.798 30.72-30.771v-56.832c0.026-16.973-13.722-30.771-30.72-30.771zM864.282 592.486c-3.866 0-7.091-3.251-7.091-7.117v-56.832c0-3.84 3.226-7.091 7.091-7.091h56.806c3.84 0 7.091 3.251 7.091 7.091v56.832c0 3.866-3.251 7.117-7.091 7.117h-56.806zM234.573 213.581h-80.461c-16.973 0-30.797 13.722-30.797 30.694v56.858c0 16.973 13.824 30.746 30.797 30.746h80.486c16.973 0 30.797-13.773 30.797-30.746v-56.858c-0.026-16.973-13.85-30.694-30.822-30.694zM154.061 308.275c-3.891 0-7.091-3.302-7.091-7.142v-56.858c0-3.814 3.2-7.091 7.091-7.091h80.486c3.84 0 7.091 3.277 7.091 7.091v56.858c0 3.84-3.251 7.142-7.091 7.142h-80.486zM755.405 213.581h-435.61c-16.973 0-30.771 13.722-30.771 30.694v56.858c0 16.973 13.824 30.746 30.771 30.746h435.61c16.947 0 30.746-13.773 30.746-30.746v-56.858c0-16.973-13.798-30.694-30.746-30.694zM319.77 308.275c-3.84 0-7.091-3.302-7.091-7.142v-56.858c0-3.814 3.226-7.091 7.091-7.091h435.584c3.84 0 7.117 3.277 7.117 7.091v56.858c0 3.84-3.277 7.142-7.117 7.142h-435.584zM921.114 213.581h-80.512c-16.973 0-30.822 13.722-30.822 30.694v56.858c0 16.973 13.85 30.746 30.822 30.746h80.512c16.973 0 30.72-13.773 30.72-30.746v-56.858c0.026-16.973-13.722-30.694-30.72-30.694zM840.602 308.275c-3.891 0-7.142-3.302-7.142-7.142v-56.858c0-3.814 3.251-7.091 7.142-7.091h80.486c3.84 0 7.091 3.277 7.091 7.091v56.858c0 3.84-3.251 7.142-7.091 7.142h-80.486zM281.933 355.533h-127.821c-16.973 0-30.797 13.875-30.797 30.822v56.986c0 16.973 13.824 30.797 30.797 30.797h127.846c16.973 0 30.771-13.824 30.771-30.797v-56.986c-0.026-16.947-13.824-30.822-30.797-30.822zM154.061 450.483c-3.891 0-7.091-3.277-7.091-7.142v-56.986c0-3.891 3.2-7.091 7.091-7.091h127.846c3.84 0 7.091 3.2 7.091 7.091v56.986c0 3.866-3.251 7.142-7.091 7.142h-127.846zM423.962 355.533h-56.832c-16.973 0-30.771 13.875-30.771 30.822v56.986c0 16.973 13.798 30.797 30.771 30.797h56.832c16.973 0 30.771-13.824 30.771-30.797v-56.986c0-16.947-13.798-30.822-30.771-30.822zM367.13 450.483c-3.84 0-7.091-3.277-7.091-7.142v-56.986c0-3.891 3.251-7.091 7.091-7.091h56.832c3.84 0 7.091 3.2 7.091 7.091v56.986c0 3.866-3.251 7.142-7.091 7.142h-56.832zM566.016 355.533h-56.832c-16.973 0-30.797 13.875-30.797 30.822v56.986c0 16.973 13.824 30.797 30.797 30.797h56.832c16.922 0 30.72-13.824 30.72-30.797v-56.986c0.026-16.947-13.798-30.822-30.72-30.822zM509.184 450.483c-3.891 0-7.091-3.277-7.091-7.142v-56.986c0-3.891 3.2-7.091 7.091-7.091h56.806c3.814 0 7.091 3.2 7.091 7.091v56.986c0 3.866-3.277 7.142-7.091 7.142h-56.806zM708.019 355.533h-56.832c-16.973 0-30.771 13.875-30.771 30.822v56.986c0 16.973 13.798 30.797 30.771 30.797h56.832c16.998 0 30.771-13.824 30.771-30.797v-56.986c0-16.947-13.773-30.822-30.771-30.822zM651.187 450.483c-3.84 0-7.091-3.277-7.091-7.142v-56.986c0-3.891 3.251-7.091 7.091-7.091h56.858c3.84 0 7.066 3.2 7.066 7.091v56.986c0 3.866-3.226 7.142-7.066 7.142h-56.858zM921.114 355.533h-127.872c-16.973 0-30.72 13.875-30.72 30.822v56.986c0 16.973 13.747 30.797 30.72 30.797h127.872c16.973 0 30.72-13.824 30.72-30.797v-56.986c0.026-16.947-13.722-30.822-30.72-30.822zM793.242 450.483c-3.891 0-7.091-3.277-7.091-7.142v-56.986c0-3.891 3.2-7.091 7.091-7.091h127.821c3.84 0 7.091 3.2 7.091 7.091v56.986c0 3.866-3.251 7.142-7.091 7.142h-127.821z" />
<glyph unicode="&#xe642;" glyph-name="EnvMath_handle" d="M694.707 814.515c27.136-27.136 27.136-71.091 0-98.202l-448-448c-27.136-27.136-71.091-27.136-98.202 0v0c-27.136 27.11-27.136 71.066 0 98.227l447.974 447.974c27.136 27.11 71.117 27.11 98.227 0v0zM847.565 525.926c27.11-27.136 27.11-71.091 0-98.227l-297.395-297.37c-27.136-27.136-71.091-27.136-98.227 0v0c-27.136 27.11-27.136 71.066 0 98.202l297.395 297.421c27.136 27.11 71.117 27.11 98.227-0.026v0z" />
<glyph unicode="&#xe643;" glyph-name="icon_addition" d="M715.213 483.84h-167.373v167.398c0 14.49-16.051 26.214-35.866 26.214s-35.84-11.725-35.84-26.214v-167.398h-167.347c-14.49 0-26.24-16.026-26.24-35.84 0-19.789 11.75-35.84 26.24-35.84h167.373v-167.347c0-14.49 16.026-26.24 35.84-26.24s35.866 11.75 35.866 26.24v167.347h167.373c14.464 0 26.214 16.051 26.214 35.84 0 19.814-11.75 35.84-26.24 35.84z" />
<glyph unicode="&#xe644;" glyph-name="half-circle-left" d="M720.788 883.387c0.405 0 0.81-0.006 1.216-0.008v-873.372c-0.406-0.001-0.811-0.008-1.216-0.008-242.562 0-439.197 195.516-439.197 436.693 0 241.181 196.636 436.695 439.197 436.695z" />
<glyph unicode="&#xe645;" glyph-name="dp-shape" d="M689.843 395.699v292.89c0 34.637-28.16 62.771-62.797 62.771h-355.635c-34.637 0-62.771-28.16-62.771-62.771v-355.635c0-34.611 28.16-62.746 62.771-62.746h292.89c0-69.35 56.243-125.542 125.542-125.542s125.491 56.192 125.491 125.542c0.026 69.299-56.192 125.491-125.491 125.491zM446.746 352.845c-92.954 0-168.448 75.546-168.448 168.474 0 92.902 75.546 168.474 168.448 168.474 92.877 0 168.474-75.571 168.474-168.474 0-92.877-75.546-168.474-168.474-168.474zM752.589 249.242h-41.856v-41.856h-41.907v41.856h-41.856v41.856h41.856v41.856h41.907v-41.856h41.856v-41.856zM446.746 652.8c-72.499 0-131.482-58.982-131.482-131.482 0-72.474 58.982-131.482 131.482-131.482 72.474 0 131.482 59.008 131.482 131.482 0 72.499-59.008 131.482-131.482 131.482z" />
<glyph unicode="&#xe646;" glyph-name="half-circle-right" d="M282.807 883.387c-0.406 0-0.81-0.006-1.216-0.008v-873.372c0.406-0.001 0.81-0.008 1.216-0.008 242.562 0 439.197 195.516 439.197 436.693 0 241.181-196.636 436.695-439.197 436.695z" />
<glyph unicode="&#xe647;" glyph-name="icon_shape" d="M504.371 339.328c0-103.098-83.577-186.675-186.675-186.675s-186.675 83.577-186.675 186.675c0 103.098 83.577 186.675 186.675 186.675s186.675-83.577 186.675-186.675zM516.531 187.162l204.058 353.459 204.083-353.459zM542.131 401.971h43.213l89.702 155.366v186.035h-341.376v-171.674c99.942-6.81 182.451-76.365 208.461-169.728z" />
<glyph unicode="&#xe649;" glyph-name="equation_editor_icon" d="M123.059 432.23l-76.979-156.979 73.958 65.050 198.81-251.853 162.995 600.832h490.47l22.63 86.707h-580.634l-129.792-507.904zM697.805 478.771c31.104 43.392 56.064 73.805 75.059 91.264 18.944 17.51 37.453 26.24 55.45 26.24 21.53 0 36.403-7.578 44.57-22.682 4.352-7.859 6.554-17.357 6.554-28.57 0-11.469-4.531-21.99-13.491-31.462-9.037-9.523-19.968-14.259-32.768-14.259-7.962 0-16.845 3.072-26.854 9.216-9.984 6.144-17.536 9.216-22.733 9.216-10.112 0-19.738-5.274-28.877-15.923-9.165-10.624-24.934-33.101-47.309-67.507l7.757-42.010c4.147-21.555 7.552-39.27 10.24-53.12 2.765-13.901 5.76-26.675 9.062-38.451 4.378-16.256 8.73-28.032 13.107-35.302 4.378-7.245 10.803-10.931 19.277-10.931 7.629 0 16.947 5.76 27.878 17.229 5.99 6.144 15.155 17.51 27.418 33.997l17.229-12.186c-14.464-24.934-33.254-48.563-56.294-70.938-23.040-22.426-45.594-33.587-67.712-33.587-18.56 0-33.818 7.885-45.85 23.552-6.784 8.422-12.8 19.917-17.971 34.509-2.739 7.578-6.477 20.966-11.238 40.192s-7.834 31.078-9.19 35.584l-5.734-10.086c-27.034-47.565-46.797-78.438-59.315-92.749-18.816-21.222-40.653-31.846-65.485-31.846-14.157 0-26.522 4.941-37.018 14.925-10.496 9.907-15.744 22.17-15.744 36.71 0 12.058 3.891 23.168 11.674 33.408s18.637 15.309 32.538 15.309c8.474 0 18.918-3.046 31.283-9.19 12.416-6.144 20.531-9.267 24.371-9.267 8.448 0 15.718 3.84 21.862 11.52 6.118 7.706 18.227 26.752 36.198 57.19l16.358 27.622c-2.662 11.75-5.658 26.189-8.755 43.29-3.174 17.101-6.349 34.586-9.626 52.557l-6.554 35.686c-4.634 25.779-12.032 42.726-22.093 50.867-5.76 4.787-15.13 7.142-28.237 7.142-1.382 0-4.659-0.205-9.805-0.614-5.222-0.435-10.394-0.922-15.59-1.485v22.682c24.55 3.072 51.482 6.989 80.845 11.75 29.338 4.736 48.87 8.090 58.701 10.061 8.192-11.187 14.95-24.755 20.301-40.678 5.299-15.974 9.293-32.896 12.058-50.79l4.454-28.083z" />
<glyph unicode="&#xe650;" glyph-name="icon_stamp" d="M735.309 485.018h-178.662v108.954c36.557 16.922 62.080 53.683 62.080 96.563 0 58.906-47.795 106.701-106.701 106.701s-106.65-47.795-106.65-106.701c0-42.88 25.523-79.667 62.080-96.589v-108.928h-178.688c-39.245 0-71.091-31.821-71.091-71.066v-140.109c0-28.262 22.938-51.2 51.2-51.2h57.805v-49.024h370.79v49.024h57.728c28.262 0 51.2 22.938 51.2 51.2v140.109c0 39.245-31.846 71.066-71.091 71.066zM729.088 311.142h-434.176v94.285h434.176v-94.285z" />
<glyph unicode="&#xe651;" glyph-name="icon_selection" d="M673.357 434.944l-322.714 274.534v-425.446l111.155 103.654 96.563-201.165 69.248 33.203-96.461 200.96z" />
<glyph unicode="&#xe652;" glyph-name="gl-search" d="M844.749 154.982l-243.738 243.763c35.661 42.496 57.139 97.178 57.139 156.851 0 134.835-109.696 244.531-244.557 244.531s-244.506-109.696-244.506-244.531c0-134.912 109.619-244.557 244.506-244.557 50.227 0 96.973 15.258 135.859 41.293l246.349-246.349c13.491-13.517 35.456-13.517 48.947 0 13.542 13.542 13.542 35.456 0 48.998zM224.384 555.622c0 104.346 84.838 189.235 189.21 189.235 104.346 0 189.261-84.89 189.261-189.235 0-104.371-84.838-189.261-189.261-189.261-104.371 0-189.21 84.838-189.21 189.261z" />
<glyph unicode="&#xf025;" glyph-name="headphones" horiz-adv-x="951" d="M950.857 444.571q0-94.857-34.286-179.429l-11.429-28-105.714-18.857q-12.571-47.429-51.714-78t-89.429-30.571v-18.286q0-8-5.143-13.143t-13.143-5.143h-36.571q-8 0-13.143 5.143t-5.143 13.143v329.143q0 8 5.143 13.143t13.143 5.143h36.571q8 0 13.143-5.143t5.143-13.143v-18.286q40.571 0 74.286-20.286t53.143-54.571l38.857 6.857q16.571 54.286 16.571 110.286 0 84.571-50.286 159.429t-135.143 119.429-180.286 44.571-180.286-44.571-135.143-119.429-50.286-159.429q0-56 16.571-110.286l38.857-6.857q19.429 34.286 53.143 54.571t74.286 20.286v18.286q0 8 5.143 13.143t13.143 5.143h36.571q8 0 13.143-5.143t5.143-13.143v-329.143q0-8-5.143-13.143t-13.143-5.143h-36.571q-8 0-13.143 5.143t-5.143 13.143v18.286q-50.286 0-89.429 30.571t-51.714 78l-105.714 18.857-11.429 28q-34.286 84.571-34.286 179.429 0 86.286 38.286 166.286t102.286 138.571 152 93.429 182.857 34.857 182.857-34.857 152-93.429 102.286-138.571 38.286-166.286z" />
<glyph unicode="&#xf0d7;" glyph-name="caret-down" horiz-adv-x="585" d="M585.143 548.571q0-14.857-10.857-25.714l-256-256q-10.857-10.857-25.714-10.857t-25.714 10.857l-256 256q-10.857 10.857-10.857 25.714t10.857 25.714 25.714 10.857h512q14.857 0 25.714-10.857t10.857-25.714z" />
<glyph unicode="&#xf111;" glyph-name="circle" horiz-adv-x="878" d="M877.714 438.857q0-119.429-58.857-220.286t-159.714-159.714-220.286-58.857-220.286 58.857-159.714 159.714-58.857 220.286 58.857 220.286 159.714 159.714 220.286 58.857 220.286-58.857 159.714-159.714 58.857-220.286z" />
</font>
</defs>
</svg>
