<?xml version="1.0" standalone="no"?>
<!DOCTYPE svg PUBLIC "-//W3C//DTD SVG 1.1//EN" "http://www.w3.org/Graphics/SVG/1.1/DTD/svg11.dtd" >
<svg xmlns="http://www.w3.org/2000/svg">
<metadata>Generated by IcoMoon</metadata>
<defs>
<font id="icomoon" horiz-adv-x="512">
<font-face units-per-em="512" ascent="480" descent="-32" />
<missing-glyph horiz-adv-x="512" />
<glyph unicode="&#x20;" d="" horiz-adv-x="256" />
<glyph unicode="&#xe600;" d="M391.834 469.401h-276.621c-31.053 0-56.256-25.203-56.256-56.269v-376.064c0-31.117 25.203-56.269 56.256-56.269h276.621c31.091 0 56.269 25.152 56.269 56.269v376.064c0 31.065-25.178 56.269-56.269 56.269zM281.651 64.845h-56.243v149.927h56.243v-149.927zM253.632 253.977l-84.48 131.392h168.755l-84.275-131.392z" />
<glyph unicode="&#xe601;" d="M337.907 385.639h-168.781l84.48-131.392zM225.382 215.065h56.269v-149.939h-56.269v149.939z" />
<glyph unicode="&#xe602;" d="M452.173 224.499l-195.213 161.6-196.377-161.677 26.688-0.243 169.613 139.059 168.627-138.419zM397.555 225.178v-167.155h-282.137v167.155l141.466 114.355 140.672-114.355zM350.502 230.4h-62.656v-156.685h62.656v156.685zM256.55 230.4h-94.093v-78.285h94.093v78.285zM178.137 309.261l-47.040-37.337v99.61h47.040z" />
<glyph unicode="&#xe603;" d="M292.787 370.791c-10.701-10.445-115.251-120.218-115.251-120.218-5.709-5.581-8.55-12.877-8.55-20.173s2.841-14.592 8.55-20.173c0 0 104.551-109.773 115.251-120.192 10.701-10.445 29.952-11.161 41.37 0 11.392 11.136 12.288 26.675-0.026 40.32l-95.923 100.045 95.923 100.045c12.313 13.67 11.418 29.209 0.026 40.345-11.443 11.136-30.695 10.445-41.37 0z" />
<glyph unicode="&#xe604;" d="M396.365 267.187c-10.419-10.701-120.192-115.277-120.192-115.277-5.581-5.709-12.877-8.55-20.173-8.55-7.322 0-14.618 2.841-20.173 8.55 0 0-109.773 104.576-120.218 115.277-10.419 10.701-11.136 29.926 0 41.37 11.162 11.417 26.701 12.313 40.345 0l100.045-95.949 100.019 95.923c13.671 12.314 29.235 11.418 40.346 0 11.161-11.417 10.471-30.669 0-41.344z" />
<glyph unicode="&#xe605;" d="M396.365 193.613c-10.419 10.701-120.192 115.251-120.192 115.251-5.581 5.709-12.877 8.576-20.173 8.576-7.322 0-14.618-2.867-20.173-8.576 0 0-109.773-104.551-120.218-115.251-10.419-10.701-11.136-29.952 0-41.37 11.162-11.392 26.701-12.313 40.345 0l100.045 95.923 100.019-95.923c13.671-12.313 29.235-11.392 40.346 0 11.161 11.443 10.471 30.695 0 41.37z" />
<glyph unicode="&#xe606;" d="M219.213 370.791c10.701-10.445 115.251-120.218 115.251-120.218 5.735-5.581 8.576-12.877 8.576-20.173s-2.841-14.592-8.576-20.173c0 0-104.55-109.773-115.251-120.192-10.701-10.445-29.927-11.161-41.369 0-11.417 11.136-12.314 26.675 0 40.32l95.949 100.045-95.923 100.045c-12.314 13.67-11.417 29.209 0 40.345s30.669 10.445 41.344 0z" />
<glyph unicode="&#xe607;" d="M367.334 149.709l-70.605 80.691 70.605 80.691c12.007 12.007 12.007 31.463 0 43.443s-31.462 11.981-43.443 0l-67.891-77.593-67.865 77.568c-12.006 12.006-31.463 12.006-43.443 0s-11.981-31.463 0-43.443l70.579-80.666-70.605-80.691c-11.981-12.007-11.981-31.411 0-43.392 12.006-12.007 31.463-12.007 43.443 0l67.891 77.543 67.865-77.543c12.007-12.007 31.462-12.007 43.443 0s12.007 31.385 0.026 43.392z" />
<glyph unicode="&#xe608;" d="M402.074 137.869h-127.872v25.549h127.872v-25.549zM355.584 182.63h-33.677v31.974h33.677v-31.974zM355.584 86.72h-33.677v31.949h33.677v-31.949zM357.082 292.454l-160.743-160.755-5.030 5.031 160.755 160.743 5.017-5.017zM134.4 361.293v-40.896h7.872c2.073 6.118 5.401 12.672 9.971 19.648 4.595 6.951 8.832 10.726 12.723 11.277 2.137 0.256 4.787 0.486 7.898 0.704 3.174 0.205 5.913 0.295 8.167 0.295h4.723v-113.063c0-2.47-0.448-4.621-1.293-6.439-0.896-1.805-2.649-3.251-5.248-4.301-1.293-0.576-3.712-0.999-7.219-1.369s-6.246-0.679-8.192-0.87v-7.846h79.654v7.846c-2.291 0.294-5.069 0.755-8.307 1.369-3.264 0.627-5.645 1.255-7.219 1.856-2.535 1.075-4.262 2.547-5.107 4.403-0.87 1.831-1.319 3.968-1.319 6.375v112.026h4.71c2.279 0 4.979-0.103 8.141-0.295 3.136-0.218 5.811-0.448 7.911-0.704 3.904-0.55 8.141-4.327 12.736-11.277 4.569-6.976 7.898-13.517 9.958-19.648h7.885v40.909h-138.445z" />
<glyph unicode="&#xe609;" d="M153 157l143 162 50-2-139-158h160v-33h-215z" />
<glyph unicode="&#xe60a;" d="M307.2 302.451v20.928c-25.6 0-46.349-11.213-57.6-28.147-11.251 16.935-19.2 28.147-57.6 28.147v-20.928c38.4 0 38.4-18.765 38.4-41.856v-23.795h-25.6v-25.6h25.6v-23.795c0-23.104 0-41.856-38.4-41.856v-20.928c38.4 0 46.349 11.2 57.6 28.147 11.251-16.947 32-28.147 57.6-28.147v20.928c-25.6 0-38.4 18.752-38.4 41.856v23.795h25.6v25.6h-25.6v23.808c0 23.091 12.8 41.843 38.4 41.843z" />
<glyph unicode="&#xe60b;" d="M256 286c35 0 64-28 64-63s-29-63-64-63-63 28-63 63 28 63 63 63zM256 193c16 0 29 14 29 30s-13 30-29 30-29-14-29-30c0-17 13-30 29-30z" />
<glyph unicode="&#xe60c;" d="M290 257c14 0 17 14 18 29h31c-3-35-15-58-51-58-24 0-38 19-54 26-4 2-7 3-10 3-14 0-18-12-19-28h-30c2 35 15 58 50 58 17 0 26-7 39-17 8-6 14-9 17-11s6-2 9-2zM339 215c-3-35-15-57-51-57-24 0-38 19-54 26-4 2-7 3-10 3-14 0-18-13-19-29h-30c2 35 15 59 50 59 17 0 26-7 39-17 8-6 13-9 16-11 3-1 7-2 10-2 15 0 17 13 18 28h31z" />
<glyph unicode="&#xe60d;" d="M344 206h-168v33h168v-33zM281 265h-42v40h42v-40zM281 140h-42v40h42v-40z" />
<glyph unicode="&#xe60e;" d="M395.635 275.289l-76.736 76.787c-8.423 8.435-23.245 8.435-31.693 0l-152.666-152.678c-4.224-4.211-6.541-9.843-6.541-15.834 0-5.978 2.329-11.61 6.541-15.834l76.774-76.774c4.224-4.224 9.843-6.553 15.834-6.553s11.623 2.329 15.834 6.553l152.653 152.704c8.755 8.691 8.755 22.899 0 31.629zM229.415 104.512c-1.6-1.6-2.931-1.6-4.531 0l-76.775 76.787c-0.793 0.793-0.922 1.767-0.922 2.265s0.115 1.459 0.922 2.265l76.339 76.327 81.305-81.293-76.339-76.352zM183.411 210.353l70.543-70.524-4.525-4.526-70.543 70.524 4.525 4.526z" />
<glyph unicode="&#xe60f;" d="M326 142v59h-217v40h217v59l79-79z" />
<glyph unicode="&#xe610;" d="M334 227l-151-49v33l106 31-106 32v32l151-48v-31zM334 139h-151v30h151v-30z" />
<glyph unicode="&#xe611;" d="M334 178l-151 49v30l151 49v-32l-106-32 106-32v-32zM334 139h-151v30h151v-30z" />
<glyph unicode="&#xe612;" d="M374.925 341.261c0.026 3.469-1.024 7.053-6.029 12.083-8.051 8.064-24.525 11.456-43.072 11.456h-16.601c-23.552 0-51.046-6.707-51.175-25.165l-2.048-30.464v-132.839c0-1.805 2.56-13.952 3.469-15.526l40.256-77.606h-154.855c-4.327 0-7.846-2.061-7.846-6.4 0-4.327 3.52-6.4 7.846-6.4h155.853c2.547 0 4.697 10.189 6.131 12.045l1.625 1.625c1.869-3.277 5.325-3.059 9.101-3.059 3.75 0 7.219 3.149 9.101 6.413l46.95 83.175c0.87 1.575 1.344 3.648 1.344 5.453l-0.051 165.209zM329.075 121.6h-23.002l-24.051 48.615 16.474 13.351 16.103-8.051c1.677-0.998 3.725-0.141 5.401 0.858l16.269 10.176 16.73-16.781-23.923-48.166zM345.6 300.8h-64.499l-0.051 32.666c2.279 2.304 12.25 10.534 28.199 10.534l7.744 1.562c15.872 0 28.582-8.307 28.582-10.611l0.026-34.15z" />
<glyph unicode="&#xe613;" d="M290 188h-66v69h66v-69z" />
<glyph unicode="&#xe614;" d="M323 285v-97c0-28 2-43 5-52h-31c-3 5-5 20-5 48v101h-57c-1-46-12-120-25-149h-30c13 34 24 103 25 149-14 0-27 0-36-3l-4 18c8 5 22 10 50 10h135l-3-25h-24z" />
<glyph unicode="&#xe615;" d="M214 155c12 1 24 1 24 14v121h-5c-18 0-22 0-31-13-5-8-9-14-11-21h-9v44h149v-44h-8c-3 9-15 32-25 33-4 1-12 1-17 1h-5v-120c0-13 12-14 24-15v-9h-86v9z" />
<glyph unicode="&#xe616;" d="M248.681 121.539c17.564 1.465 35.129 1.465 35.129 20.491v177.11h-7.319c-26.346 0-32.202 0-45.376-19.029-7.319-11.71-13.174-20.491-16.102-30.738h-11.71v64.404h216.63v-64.404h-11.71c-4.392 13.175-20.491 46.839-35.129 48.303-5.854 1.465-19.029 1.465-26.346 1.465h-7.319v-175.648c0-19.029 17.565-20.491 35.129-21.956v-13.175h-125.88v13.175zM119.874 117.148c11.71 1.465 23.42 0 23.42 13.175v117.098h-5.854c-17.564 0-20.492 0-29.273-13.174-4.392-7.319-8.782-13.174-10.246-19.028h-8.782v40.985h143.445v-40.985h-7.319c-2.927 8.782-13.174 29.274-23.42 30.738-4.393 0-13.174 1.465-17.565 1.465h-4.393v-115.635c0-11.71 10.245-13.175 21.956-14.638v-7.319h-81.969v7.318z" />
<glyph unicode="&#xe617;" d="M263.13 100.647c3.469-4.25 23.45 6.95 31.783 12.672 20.377 14.055 47.526 30.771 65.6 58.701 36.928 57.063-0.166 101.133-29.082 114.406-33.575 15.385-74.944 17.639-74.944 17.639l3.328 27.533c0 0 2.099 12.403-0.973 15.974-1.6 1.869-11.482-0.269-17.024-2.777-25.6-11.597-28.288-12.877-68.403-33.203-30.003-15.207-38.797-22.4-37.197-33.6 0.691-4.825 8.128-14.695 41.6-35.993 35.2-22.4 68.953-41.075 70.656-41.651 8-2.649 6.566 14.144 6.566 14.144l-0.793 32.487c0 0 52.224 0.883 65.575-26.585 6.618-13.581 8.576-33.178-15.603-67.993-5.99-8.627-14.502-18.701-19.776-23.897-10.637-10.496-24.793-23.603-21.312-27.853z" />
<glyph unicode="&#xe618;" d="M359 338l-101-231h-20l-51 110h-27v24h56l38-85 79 182h26z" />
<glyph unicode="&#xe619;" d="M248.883 100.647c-3.469-4.25-23.475 6.95-31.795 12.672-20.377 14.055-47.526 30.771-65.6 58.701-36.928 57.063 0.154 101.133 29.095 114.406 33.561 15.385 74.944 17.639 74.944 17.639l-3.328 27.533c0 0-2.099 12.403 0.973 15.974 1.6 1.869 11.482-0.269 17.037-2.777 25.6-11.597 28.301-12.877 68.416-33.203 30.003-15.207 38.784-22.4 37.184-33.6-0.678-4.825-8.128-14.695-41.6-35.993-35.2-22.4-68.954-41.075-70.656-41.651-8-2.649-6.567 14.144-6.567 14.144l0.793 32.487c0 0-52.211 0.883-65.575-26.585-6.605-13.581-8.576-33.178 15.603-67.993 5.99-8.627 14.502-18.701 19.776-23.897 10.624-10.496 24.768-23.603 21.299-27.853z" />
<glyph unicode="&#xe61a;" d="M330 181h-75l-17-40h-31l17 40h-38v30h51l12 28h-63v30h75l15 37h31l-15-37h38v-30h-51l-12-28h63v-30z" />
<glyph unicode="&#xe61b;" d="M166.4 140.531c0-16.525 7.001-44.531 23.578-44.531h131.2c17.869 0 24.423 29.056 24.423 44.531v109.069h-179.2v-109.069zM281.6 234.855c0 5.184 7.603 9.395 12.8 9.395s12.8-4.211 12.8-9.395v-94.144c0-5.197-7.603-9.408-12.8-9.408s-12.8 4.211-12.8 9.408v94.144zM243.2 234.855c0 5.184 7.603 9.395 12.8 9.395s12.8-4.211 12.8-9.395v-94.144c0-5.197-7.603-9.408-12.8-9.408s-12.8 4.211-12.8 9.408v94.144zM204.8 234.855c0 5.184 7.59 9.395 12.8 9.395s12.8-4.211 12.8-9.395v-94.144c0-5.197-7.59-9.408-12.8-9.408s-12.8 4.211-12.8 9.408v94.144zM348.147 313.6h-40.947v13.952c0 2.598-6.4 11.648-8 11.648h-86.4c-1.6 0-8-9.050-8-11.648v-13.952h-40.96c-6.362 0-10.24 3.161-10.24-3.2v-34.56c0-6.362 3.879-13.44 10.24-13.44h184.307c6.375 0 10.253 7.079 10.253 13.44v34.56c0 6.362-3.878 3.2-10.253 3.2z" />
<glyph unicode="&#xe61c;" d="M182 350l152-127-152-126v253z" />
<glyph unicode="&#xe61d;" d="M334 97l-152 126 152 127v-253z" />
<glyph unicode="&#xe61e;" d="M404 274c11-12 8-29 8-29v-62h-51l-8 31h-193l-8-31h-52v62s-2 16 9 29 30 12 30 12h58s-38-14-38-57v-3h195v3c0 43-38 57-38 57h57s20 1 31-12zM213 368h86v-102h-86v102zM182 189h150l32-114h-214zM205 174l-5-19h111l-6 19h-100zM195 144l-8-22h136l-8 22h-120zM179 93h151l-5 17h-141z" />
<glyph unicode="&#xe61f;" d="M406 303l-197-196-103 102 38 38 65-65 159 159z" />
<glyph unicode="&#xe620;" d="M181 332h70l81-110-81-110h-70l83 110z" />
<glyph unicode="&#xe621;" d="M332 112h-70l-81 110 81 110h70l-83-110z" />
<glyph unicode="&#xe622;" d="M396.774 343.13c0.026 3.469-1.024 9.255-6.029 14.285-8.051 8.077-24.525 13.645-43.059 13.645h-16.601c-23.565 0-50.56-8.896-50.688-27.353l-1.575-32.666v-132.825c0-1.805 2.074-13.913 2.969-15.475l32.256-61.043c-1.869-5.056-13.619-6.131-19.469 7.194-8.448 19.123-14.95 45.069-40.537 45.517-24.243 0.576-35.469-10.522-39.194-44.941-1.421-13.159-12.211-11.289-13.939 4.647-2.803 26.227-16.999 42.266-37.977 42.918-14.822 0.474-26.573-3.558-34.829-11.942-14.246-14.451-13.248-37.107-12.698-49.319 0.064-1.625 0.128-3.034 0.141-4.25 0.038-5.76 4.775-10.816 10.547-10.342 5.786 0.051 10.406 4.774 10.368 10.56 0 1.382-0.077 3.072-0.154 4.966-0.435 9.625-1.152 25.753 6.695 33.702 4.045 4.096 10.304 5.926 19.303 5.696 12.595-0.371 16.653-13.389 17.805-24.231 2.995-27.827 18.983-35.187 28.058-34.931 9.075 0.269 20.416 10.022 23.693 30.72 3.43 21.683 11.353 26.010 21.837 25.843 10.009-0.205 14.592-17.357 18.829-27.725 4.839-11.84 11.469-18.125 16.448-21.389 14.669-9.6 35.597-3.034 43.392-0.281 1.882-1.293 4.442-1.203 7.207-1.203 3.776 0 7.168 3.149 9.024 6.425l46.925 83.175c0.87 1.575 1.331 3.61 1.331 5.453l-0.077 165.171zM302.912 337.536c2.265 2.304 12.237 9.434 28.185 9.434l8.256 1.011c15.872 0 29.069-8.845 29.069-11.149v-29.773h-65.459l-0.051 30.477zM350.925 127.859h-23.002l-24.038 46.425 16.461 12.25 16.103-8.615c1.677-0.986 3.738-0.397 5.401 0.601l16.269 10.022 16.743-14.643-23.936-46.041z" />
<glyph unicode="&#xe623;" d="M164 375l184-153-184-152v305z" />
<glyph unicode="&#xe624;" d="M149 352h79v-259h-79v259zM289 352h80v-259h-80v259z" />
<glyph unicode="&#xe625;" d="M366 327v-39l-68-68 68-69v-38h-38l-69 68-68-68h-39v37l68 70-68 68v39h39l68-69 69 69h38z" />
<glyph unicode="&#xe626;" d="M106 288h81l64 66v-264l-62 64h-83v134zM298 288c14-18 23-40 23-65 0-24-9-46-23-64l-18 18c10 13 15 29 15 46s-6 34-16 47zM330 319c22-26 35-60 35-96s-13-69-35-95l-18 18c17 21 27 48 27 77s-10 57-27 78zM361 349c30-34 48-78 48-126s-17-92-47-125l-18 18c25 29 40 66 40 107s-16 79-41 108z" />
<glyph unicode="&#xe627;" d="M202 252c0 29-3 42-19 42-19 0-20-17-20-70 0-60 1-75 21-75 17 0 20 20 20 51h46v-7c0-43-12-76-71-76-61 0-65 45-65 106 0 52 2 103 69 103 42 0 65-18 65-65v-9h-46zM353 252c0 29-3 42-19 42-19 0-20-17-20-70 0-60 1-75 21-75 17 0 20 20 20 51h46v-7c0-43-12-76-71-76-61 0-65 45-65 106 0 52 3 103 70 103 42 0 64-18 64-65v-9h-46z" />
<glyph unicode="&#xe628;" d="M393 55h-268c-42 0-77 35-77 77v179c0 42 35 77 77 77h268c42 0 77-35 77-77v-179c0-42-35-77-77-77zM200 191c0-31-3-51-20-51-20 0-22 15-22 75 0 53 2 71 21 71 16 0 19-13 19-42h45v8c0 47-22 66-64 66-67 0-70-52-70-104 0-61 4-105 65-105 59 0 71 32 71 75v7h-45zM353 191c0-31-3-51-20-51-20 0-21 15-21 75 0 53 1 71 20 71 16 0 19-13 19-42h46v8c0 47-22 66-64 66-67 0-70-52-70-104 0-61 4-105 65-105 59 0 71 32 71 75v7h-46z" />
<glyph unicode="&#xe629;" d="M371 243v-127c0-20-15-36-35-36h-183c-20 0-36 16-36 36v183c0 20 16 35 36 35h130l-31-31h-104v-192h192v102zM297 368h112v-112l-39 39-121-121-34 35 121 121c-13 13-26 25-39 38z" />
<glyph unicode="&#xe62a;" d="M381 259v-128c0-20-15-36-35-36h-183c-20 0-36 16-36 36v183c0 20 16 36 36 36h130l-31-31h-104v-193h192v102zM304 158h-111v111l38-38 121 121 35-35-121-121z" />
<glyph unicode="&#xe62b;" d="M288 120c0-31 3-33 38-36v-14h-137v14c34 3 37 5 37 36v90c0 29-3 31-32 35v12c32 3 65 9 94 17v-154zM285 336c0-21-18-39-39-39s-39 18-39 39 18 38 39 38 39-17 39-38z" />
<glyph unicode="&#xe62c;" d="M386 134l-37-37-71 71c-14-8-31-13-49-13-54 0-98 44-98 98s44 98 98 98 97-44 97-98c0-17-4-33-12-47zM162 253c0-37 30-66 67-66s66 29 66 66-29 67-66 67-67-30-67-67zM272 264v-24h-31v-31h-24v31h-31v24h31v32h24v-32h31z" />
<glyph unicode="&#xe62d;" d="M116 293h83l68 70v-279l-66 69-85-1v141zM397 269v-18l-33-32 33-33v-18h-18l-33 33-32-33h-19v18l33 33-33 32v18h19l32-32 33 32h18z" />
<glyph unicode="&#xe62e;" d="M385 134l-37-37-71 72c-14-8-31-13-49-13-54 0-98 43-98 97s44 98 98 98 98-44 98-98c0-17-4-33-12-47zM162 253c0-37 29-66 66-66s67 29 67 66-30 67-67 67-66-30-66-67zM185 265h87v-24h-87v24z" />
<glyph unicode="&#xe62f;" d="M39 314c-9 0-12 3-11 11 1 3 3 7 6 8 1 0 9 2 25 8s31 12 47 17 26 7 30 7h23v77h194v-77h24c4 0 14-2 29-7s31-11 47-17 24-8 25-8c6-3 8-8 6-14-1-3-5-5-10-5h-435zM5 255c0 14 15 30 29 30h445c14 0 28-16 28-30v-89c0-14-14-31-28-31h-51l23-128h-390l23 128h-50c-14 0-29 17-29 31v89zM113 58h286l-35 166h-216l-35-166z" />
<glyph unicode="&#xe630;" d="M371 248l-120-121c-4-4-8-5-13-5s-9 1-13 5l-84 84c-4 4-6 8-6 13s2 9 6 13l29 29c4 4 8 5 13 5s9-1 13-5l42-42 78 79c4 4 8 5 13 5s9-1 13-5l29-30c4-4 6-7 6-12s-2-9-6-13zM411 224c0 63-35 111-77 135-24 14-50 20-78 20-63 0-111-35-135-77-14-24-20-50-20-78 0-63 35-111 77-135 24-14 50-20 78-20 63 0 111 35 135 77 14 24 20 50 20 78zM475 224c0-88-50-155-109-190-34-20-70-29-110-29-88 0-155 50-190 109-20 34-29 70-29 110 0 88 50 155 109 190 34 20 70 29 110 29 88 0 155-50 190-109 20-34 29-70 29-110z" />
<glyph unicode="&#xe631;" d="M350 172l-42-42c-2-2-4-3-6-3s-5 1-7 3l-39 39-39-39c-2-2-5-3-7-3s-4 1-6 3l-42 42c-2 2-3 4-3 6s1 5 3 7l39 39-39 39c-2 2-3 5-3 7s1 4 3 6l42 42c2 2 4 3 6 3s5-1 7-3l39-39 39 39c2 2 5 3 7 3s4-1 6-3l42-42c2-2 3-4 3-6s-1-5-3-7l-39-39 39-39c2-2 3-5 3-7s-1-4-3-6zM411 224c0 63-35 111-77 135-24 14-50 20-78 20-63 0-111-35-135-77-14-24-20-50-20-78 0-63 35-111 77-135 24-14 50-20 78-20 63 0 111 35 135 77 14 24 20 50 20 78zM475 224c0-88-50-155-109-190-34-20-70-29-110-29-88 0-155 50-190 109-20 34-29 70-29 110 0 88 50 155 109 190 34 20 70 29 110 29 88 0 155-50 190-109 20-34 29-70 29-110z" />
<glyph unicode="&#xe632;" d="M171 156c37 0 68 31 68 68s-31 68-68 68-69-31-69-68 32-68 69-68zM410 53c19 0 34 15 34 34 0 18-16 35-34 35s-35-17-35-35c0-19 16-34 35-34zM410 326c19 0 34 16 34 35 0 18-16 34-34 34s-35-16-35-34c0-19 16-35 35-35zM341 248v-49c0-3-3-8-6-8l-41-6c-2-6-5-14-9-21 6-9 14-18 24-30 1-2 2-4 2-6s-1-4-2-5c-4-5-35-40-43-40-2 0-3 1-5 2l-31 24c-7-3-13-6-20-8-2-19-5-33-7-41-1-4-4-7-8-7h-49c-4 0-8 3-8 7l-6 41c-6 2-13 4-20 8l-32-24c-1-1-3-2-5-2s-4 2-6 3c-26 24-38 37-38 42 0 2 1 3 2 5 4 5 19 26 23 31-4 8-7 15-9 22l-41 6c-4 0-6 4-6 8v49c0 3 3 8 6 8l41 6c2 6 5 14 9 21-6 9-14 18-24 30-1 2-2 4-2 6s1 4 2 5c4 5 35 40 43 40 2 0 4-1 6-2l30-24c6 3 13 6 21 8 2 19 4 33 6 41 1 4 4 7 8 7h49c4 0 8-3 8-7l7-41c6-2 13-4 20-8l31 24c1 1 3 2 5 2s4-2 6-3c26-24 38-37 38-42 0-2 0-3-1-5-4-5-20-25-24-31 4-9 7-16 9-22l41-6c3-1 6-4 6-8zM375 186c4 0 25-29 27-31 4 0 6 1 8 1s4-1 8-1c9 13 17 23 24 30l2 1c1 0 12-7 33-19 1-1 1-1 1-2 0-4-5-17-14-37 3-4 6-9 8-14 26-3 40-5 40-8v-37c0-3-14-5-40-8-2-5-5-10-8-14 9-20 14-33 14-37 0-1 0-1-1-2-22-13-33-19-33-19-4 0-24 29-26 31-4 0-6-1-8-1s-4 1-8 1c-2-2-23-31-27-31 0 0-11 6-33 19-1 1-1 1-1 2 0 4 5 17 14 37-3 4-6 9-8 14-26 3-40 5-40 8v37c0 3 14 5 40 8 2 5 5 10 8 14-9 20-14 33-14 37 0 3 5 3 11 7 6 3 10 6 15 9s8 5 8 5zM375 459c4 0 25-29 27-31 4 0 6 1 8 1s4-1 8-1c9 13 17 23 24 30l2 1c1 0 12-7 33-19 1-1 1-1 1-2 0-4-5-17-14-37 3-4 6-9 8-14 26-3 40-5 40-8v-37c0-3-14-5-40-8-2-5-5-10-8-14 9-20 14-33 14-37 0-1 0-1-1-2-22-13-33-19-33-19-4 0-24 29-26 31-4 0-6-1-8-1s-4 1-8 1c-2-2-23-31-27-31 0 0-11 6-33 19-1 1-1 1-1 2 0 4 5 17 14 37-3 4-6 9-8 14-26 3-40 5-40 8v37c0 3 14 5 40 8 2 5 5 10 8 14-9 20-14 33-14 37 0 3 5 3 11 7 6 3 10 6 15 9s8 5 8 5z" />
<glyph unicode="&#xe633;" d="M140 41l26 26-67 67-26-26v-30h37v-37h30zM290 306c0 4-3 7-7 7-2 0-3-1-4-2l-155-155c-1-1-2-3-2-5 0-4 2-6 6-6 2 0 4 1 5 2l155 154c1 1 2 3 2 5zM274 361l119-119-238-237h-118v118zM469 334c0-10-3-19-10-26l-48-47-118 118 47 48c7 7 16 10 26 10s19-3 26-10l67-67c7-7 10-16 10-26z" />
<glyph unicode="&#xe634;" d="M116 17c-8 0-12 7-12 15 0 1 1 2 1 5l24 143-104 101c-5 5-7 10-7 14 0 7 5 11 16 13l144 21 64 130c4 8 8 12 14 12s10-4 14-12l64-130 144-21c11-2 16-6 16-13 0-4-3-9-8-14l-103-101 24-143v-5c0-8-3-15-11-15-4 0-8 2-12 4l-128 67-128-67c-4-2-9-4-12-4z" />
<glyph unicode="&#xe635;" d="M0 398c0 5 4 9 9 9h64c48 0 87-21 117-64-11-18-24-44-39-78-9 17-11 23-22 38-12 17-28 31-56 31h-64c-5 0-9 4-9 9v55zM402 206c0 5 4 9 9 9 2 0 5-1 7-3l91-91c2-2 3-4 3-7s-1-4-3-6l-91-92c-2-2-4-2-7-2-5 0-9 4-9 9v55c-29 0-62-2-88 1-10 1-29 4-37 8s-24 12-33 20c-11 10-23 22-32 35 11 18 24 44 39 78 9-17 11-24 22-39 12-17 28-30 56-30h73v55zM402 462c0 5 4 9 9 9 2 0 5-1 7-3l91-91c2-2 3-4 3-7s-1-4-3-6l-91-92c-2-2-4-2-7-2-5 0-9 4-9 9v55h-73c-41 0-58-29-72-57-21-42-42-103-70-139-11-15-30-35-47-44s-41-16-67-16h-64c-5 0-9 4-9 9v55c0 5 4 9 9 9h64c41 0 58 29 72 57 21 42 42 103 70 139 11 15 30 34 47 43s41 17 67 17h73v55z" />
<glyph unicode="&#xe636;" d="M105 383c35 33 87 60 151 60 66 0 120-29 155-64s64-89 64-155-29-120-64-155-89-64-155-64c-74 0-133 35-169 79-3 4-2 9 1 12l39 39c2 2 4 3 7 3s6-1 7-3c24-31 63-57 115-57 44 0 80 20 103 43s43 59 43 103-20 80-43 103-59 43-103 43c-42 0-76-17-99-39l39-39c12-12 2-31-13-31h-128c-10 0-18 8-18 18v128c0 15 19 25 31 13z" />
<glyph unicode="&#xe637;" d="M426 102c0-8-3-14-8-19l-39-39c-5-5-12-8-20-8s-14 3-19 8l-84 84-84-84c-5-5-11-8-19-8s-15 3-20 8l-39 39c-5 5-8 11-8 19s3 15 8 20l84 84-84 84c-5 5-8 11-8 19s3 15 8 20l39 38c5 5 12 8 20 8s14-3 19-8l84-84 84 84c5 5 11 8 19 8s15-3 20-8l39-38c5-5 8-12 8-20s-3-14-8-19l-84-84 84-84c5-5 8-12 8-20z" />
<glyph unicode="&#xe638;" d="M101 151c5 0 9-4 9-9v-19c0-5-4-9-9-9h-19c-5 0-9 4-9 9v19c0 5 4 9 9 9h19zM101 224c5 0 9-4 9-9v-18c0-5-4-10-9-10h-19c-5 0-9 5-9 10v18c0 5 4 9 9 9h19zM101 297c5 0 9-4 9-9v-18c0-5-4-9-9-9h-19c-5 0-9 4-9 9v18c0 5 4 9 9 9h19zM430 151c5 0 9-4 9-9v-19c0-5-4-9-9-9h-275c-5 0-9 4-9 9v19c0 5 4 9 9 9h275zM430 224c5 0 9-4 9-9v-18c0-5-4-10-9-10h-275c-5 0-9 5-9 10v18c0 5 4 9 9 9h275zM430 297c5 0 9-4 9-9v-18c0-5-4-9-9-9h-275c-5 0-9 4-9 9v18c0 5 4 9 9 9h275zM466 78c5 0 9 4 9 9v238c0 5-4 9-9 9h-420c-5 0-9-4-9-9v-238c0-5 4-9 9-9h420zM466 443c25 0 46-20 46-45v-311c0-25-21-46-46-46h-420c-25 0-46 21-46 46v311c0 25 21 45 46 45h420z" />
<glyph unicode="&#xe639;" d="M366 187c10 0 18 9 18 19v36c0 10-8 19-18 19h-73v73c0 10-9 18-19 18h-36c-10 0-19-8-19-18v-73h-73c-10 0-18-9-18-19v-36c0-10 8-19 18-19h73v-73c0-10 9-18 19-18h36c10 0 19 8 19 18v73h73zM475 224c0-88-50-155-109-190-34-20-70-29-110-29-88 0-155 50-190 109-20 34-29 70-29 110 0 88 50 155 109 190 34 20 70 29 110 29 88 0 155-50 190-109 20-34 29-70 29-110z" />
<glyph unicode="&#xe63a;" d="M384 187c10 0 18 9 18 19v36c0 10-8 19-18 19h-91v91c0 10-9 18-19 18h-36c-10 0-19-8-19-18v-91h-91c-10 0-18-9-18-19v-36c0-10 8-19 18-19h91v-91c0-10 9-18 19-18h36c10 0 19 8 19 18v91h91zM393 443c45 0 82-37 82-82v-274c0-45-37-82-82-82h-274c-45 0-82 37-82 82v274c0 45 37 82 82 82h274z" />
<glyph unicode="&#xe63b;" d="M384 187c10 0 18 9 18 19v36c0 10-8 19-18 19h-256c-10 0-18-9-18-19v-36c0-10 8-19 18-19h256zM393 443c45 0 82-37 82-82v-274c0-45-37-82-82-82h-274c-45 0-82 37-82 82v274c0 45 37 82 82 82h274z" />
<glyph unicode="&#xe63c;" d="M60.096 419.84v-393.536h393.562v393.536h-393.562zM423.002 56.973h-332.25v332.199h332.25v-332.199zM169.869 142.375c0 24.499-0.423 45.683-1.331 65.536l0.666 0.231c7.36-17.6 17.165-37.005 26.087-53.069l32.089-57.933h35.673v150.221h-31.207v-43.904c0-22.515 0.666-42.803 2.893-62.643h-0.679c-6.669 16.935-15.59 35.673-24.512 51.495l-31.207 55.040h-39.68v-150.221h31.194v45.248zM284.275 128.115c0-17.37 13.146-33.447 35.2-33.447 12.941 0 24.077 4.672 31.207 13.401h0.691l1.984-10.931h30.553c-1.127 6.003-1.575 16.026-1.575 26.509v37.901c0 25.613-11.571 47.040-47.911 47.040-19.853 0-34.777-5.351-42.355-9.613l6.208-21.837c7.168 4.48 18.957 8.269 30.118 8.269 16.717 0 19.84-8.269 19.84-14.029v-1.575c-38.567 0.205-63.962-13.376-63.962-41.69zM349.351 148.621v-11.827c0-1.997-0.217-4.019-0.666-5.798-2.24-6.912-9.152-12.48-17.587-12.48-7.603 0-13.401 4.224-13.401 12.928 0 13.159 13.824 17.382 31.654 17.178zM297.395 336.371h-0.256l-15.207-7.219-3.059 13.965 21.069 9.792h15.45v-79.629h-18.010v63.091zM359.232 336.371h-0.243l-15.207-7.219-3.059 13.965 21.082 9.792h15.437v-79.629h-18.022v63.091z" />
<glyph unicode="&#xe63d;" d="M256 445.44c-118.784 0-215.040-96.307-215.040-215.040 0-118.784 96.281-215.040 215.040-215.040s215.040 96.281 215.040 215.040c0 118.758-96.281 215.040-215.040 215.040zM385.28 256.563v-52.352h-258.56v52.352h258.56z" />
<glyph unicode="&#xe63e;" d="M432 416l-240-240-112 112-80-80 192-192 320 320z" />
<glyph unicode="&#xe63f;" d="M417.575 300.992c-6.477 0.947-12.979 1.664-19.469 2.483 2.202-1.831 4.327-3.699 6.349-5.735 0-43.84 0-112.935 0-156.749-37.555 38.221-108.749 38.246-146.419 0.115 0-0.038 0-0.077 0-0.115-0.026 0.026-0.051 0.038-0.051 0.064-0.026-0.026-0.051-0.038-0.077-0.064 0 0.038 0 0.077 0 0.115-37.606 38.131-108.8 38.118-146.329-0.115 0 43.815 0 112.909 0 156.749 1.997 2.035 4.147 3.917 6.323 5.734-6.489-0.819-12.992-1.536-19.469-2.483-7.014-1.011-12.736-7.706-12.736-14.733 0-50.855 0-117.005 0-167.834 0-7.040 5.722-11.891 12.736-10.867 114.023 16.743 205.107 16.743 319.142 0 7.002-1.024 12.723 3.827 12.723 10.867 0 50.841 0 116.992 0 167.833 0 7.027-5.721 13.721-12.723 14.733zM257.959 310.72c-32.218 32.755-90.547 32.729-122.739-0.038 0-37.607 0-90.458 0-128.026 32.192 32.768 90.445 26.394 122.688-6.298 0-0.026 0-0.064 0-0.103 0.026 0.026 0.026 0.038 0.051 0.064 0.026-0.026 0.026-0.038 0.051-0.064 0 0.038 0 0.077 0 0.103 32.32 32.691 90.599 39.065 122.765 6.298 0 37.581 0 90.432 0 128.026-32.205 32.781-90.522 32.793-122.816 0.038z" />
<glyph unicode="&#xe640;" d="M334.797 193.817c-1.575-17.165-9.357-33.907-23.424-47.065-31.68-29.619-83.034-29.619-114.726 0-31.693 29.606-31.693 77.619 0 107.251 14.899 13.927 34.137 21.12 53.645 21.888v-51.341l107.11 62.029-107.111 71.667v-47.053c-28.16-1.28-55.923-11.827-77.44-32.089-46.041-43.315-46.041-113.549 0-156.877 46.016-43.315 120.627-43.315 166.643 0 21.145 19.917 32.461 45.517 34.176 71.577l-38.873 0.013z" />
<glyph unicode="&#xe641;" d="M458.189 83.098h-378.777c-22.848 0-41.408 18.624-41.408 41.408v236.839c0 22.835 18.56 41.408 41.408 41.408h378.777c22.822 0 41.421-18.573 41.421-41.408v-236.826c0-22.797-18.624-41.421-41.421-41.421zM79.411 390.963c-16.333 0-29.606-13.299-29.606-29.606v-236.839c0-16.307 13.287-29.606 29.606-29.606h378.777c16.294-0.026 29.594 13.299 29.594 29.606v236.825c0 16.32-13.274 29.607-29.594 29.607l-378.777 0.013zM105.447 319.911h-28.391c-8.486 0-15.398 6.899-15.398 15.373v28.416c0 8.487 6.912 15.399 15.398 15.399h28.403c8.487 0 15.386-6.912 15.386-15.399v-28.416c-0.013-8.474-6.912-15.373-15.398-15.373zM77.031 367.257c-1.945 0-3.546-1.6-3.546-3.546v-28.416c0-1.907 1.6-3.533 3.546-3.533h28.403c1.92 0 3.558 1.625 3.558 3.533v28.416c0 1.945-1.638 3.546-3.558 3.546h-28.403zM176.487 319.911h-28.429c-8.487 0-15.373 6.899-15.373 15.373v28.416c0 8.487 6.899 15.399 15.373 15.399h28.429c8.487 0 15.386-6.912 15.386-15.399v-28.416c-0.013-8.474-6.912-15.373-15.386-15.373zM148.045 367.257c-1.933 0-3.546-1.6-3.546-3.546v-28.416c0-1.907 1.613-3.533 3.546-3.533h28.416c1.92 0 3.546 1.625 3.546 3.533v28.416c0 1.945-1.625 3.546-3.546 3.546h-28.416zM247.501 319.911h-28.416c-8.487 0-15.386 6.899-15.386 15.373v28.416c0 8.487 6.899 15.399 15.386 15.399h28.416c8.487 0 15.373-6.912 15.373-15.399v-28.416c0-8.474-6.887-15.373-15.373-15.373zM219.072 367.257c-1.92 0-3.559-1.6-3.559-3.546v-28.416c0-1.907 1.625-3.533 3.559-3.533h28.416c1.907 0 3.546 1.625 3.546 3.533v28.416c0 1.945-1.638 3.546-3.546 3.546h-28.416zM318.502 319.911h-28.416c-8.474 0-15.373 6.899-15.373 15.373v28.416c0 8.487 6.899 15.399 15.373 15.399h28.416c8.486 0 15.411-6.912 15.411-15.399v-28.416c0-8.474-6.925-15.373-15.411-15.373zM290.087 367.257c-1.945 0-3.546-1.6-3.546-3.546v-28.416c0-1.907 1.6-3.533 3.546-3.533h28.416c1.894 0 3.533 1.625 3.533 3.533v28.416c0 1.945-1.639 3.546-3.533 3.546h-28.416zM389.517 319.911h-28.403c-8.486 0-15.385 6.899-15.385 15.373v28.416c0 8.487 6.899 15.399 15.385 15.399h28.403c8.486 0 15.385-6.912 15.385-15.399v-28.416c0-8.474-6.899-15.373-15.385-15.373zM361.113 367.257c-1.933 0-3.558-1.6-3.558-3.546v-28.416c0-1.907 1.625-3.533 3.558-3.533h28.403c1.92 0 3.558 1.625 3.558 3.533v28.416c0 1.945-1.639 3.546-3.558 3.546h-28.403zM460.557 319.911h-28.429c-8.499 0-15.373 6.899-15.373 15.373v28.416c0 8.487 6.873 15.399 15.373 15.399h28.429c8.486 0 15.36-6.912 15.36-15.399v-28.416c0.013-8.474-6.861-15.373-15.36-15.373zM432.141 367.257c-1.933 0-3.546-1.6-3.546-3.546v-28.416c0-1.907 1.613-3.533 3.546-3.533h28.403c1.92 0 3.546 1.625 3.546 3.533v28.416c0 1.945-1.625 3.546-3.546 3.546h-28.403zM105.447 248.883h-28.391c-8.486 0-15.398 6.899-15.398 15.386v28.416c0 8.487 6.912 15.386 15.398 15.386h28.403c8.487 0 15.386-6.899 15.386-15.386v-28.416c-0.013-8.487-6.912-15.386-15.398-15.386zM77.031 296.243c-1.945 0-3.546-1.625-3.546-3.559v-28.416c0-1.92 1.6-3.546 3.546-3.546h28.403c1.92 0 3.558 1.625 3.558 3.546v28.416c0 1.933-1.638 3.559-3.558 3.559h-28.403zM176.487 248.883h-28.429c-8.487 0-15.373 6.899-15.373 15.386v28.416c0 8.487 6.899 15.386 15.373 15.386h28.429c8.487 0 15.386-6.899 15.386-15.386v-28.416c-0.013-8.487-6.912-15.386-15.386-15.386zM148.045 296.243c-1.933 0-3.546-1.625-3.546-3.559v-28.416c0-1.92 1.613-3.546 3.546-3.546h28.416c1.92 0 3.546 1.625 3.546 3.546v28.416c0 1.933-1.625 3.559-3.546 3.559h-28.416zM247.501 248.883h-28.416c-8.487 0-15.386 6.899-15.386 15.386v28.416c0 8.487 6.899 15.386 15.386 15.386h28.416c8.487 0 15.373-6.899 15.373-15.386v-28.416c0-8.487-6.887-15.386-15.373-15.386zM219.072 296.243c-1.92 0-3.559-1.625-3.559-3.559v-28.416c0-1.92 1.625-3.546 3.559-3.546h28.416c1.907 0 3.546 1.625 3.546 3.546v28.416c0 1.933-1.638 3.559-3.546 3.559h-28.416zM318.502 248.883h-28.416c-8.474 0-15.373 6.899-15.373 15.386v28.416c0 8.487 6.899 15.386 15.373 15.386h28.416c8.486 0 15.411-6.899 15.411-15.386v-28.416c0-8.487-6.925-15.386-15.411-15.386zM290.087 296.243c-1.945 0-3.546-1.625-3.546-3.559v-28.416c0-1.92 1.6-3.546 3.546-3.546h28.416c1.894 0 3.533 1.625 3.533 3.546v28.416c0 1.933-1.639 3.559-3.533 3.559h-28.416zM389.517 248.883h-28.403c-8.486 0-15.385 6.899-15.385 15.386v28.416c0 8.487 6.899 15.386 15.385 15.386h28.403c8.486 0 15.385-6.899 15.385-15.386v-28.416c0-8.487-6.899-15.386-15.385-15.386zM361.113 296.243c-1.933 0-3.558-1.625-3.558-3.559v-28.416c0-1.92 1.625-3.546 3.558-3.546h28.403c1.92 0 3.558 1.625 3.558 3.546v28.416c0 1.933-1.639 3.559-3.558 3.559h-28.403zM460.557 248.883h-28.429c-8.499 0-15.373 6.899-15.373 15.386v28.416c0 8.487 6.873 15.386 15.373 15.386h28.429c8.486 0 15.36-6.899 15.36-15.386v-28.416c0.013-8.487-6.861-15.386-15.36-15.386zM432.141 296.243c-1.933 0-3.546-1.625-3.546-3.559v-28.416c0-1.92 1.613-3.546 3.546-3.546h28.403c1.92 0 3.546 1.625 3.546 3.546v28.416c0 1.933-1.625 3.559-3.546 3.559h-28.403zM117.287 106.791h-40.23c-8.487 0-15.398 6.861-15.398 15.347v28.429c0 8.486 6.912 15.373 15.398 15.373h40.243c8.487 0 15.399-6.887 15.399-15.373v-28.429c-0.013-8.486-6.925-15.347-15.411-15.347zM77.031 154.137c-1.945 0-3.546-1.651-3.546-3.571v-28.429c0-1.907 1.6-3.546 3.546-3.546h40.243c1.92 0 3.546 1.639 3.546 3.546v28.429c0 1.92-1.626 3.571-3.546 3.571h-40.243zM377.702 106.791h-217.805c-8.487 0-15.386 6.861-15.386 15.347v28.429c0 8.486 6.912 15.373 15.386 15.373h217.805c8.474 0 15.373-6.887 15.373-15.373v-28.429c0-8.486-6.899-15.347-15.373-15.347zM159.885 154.137c-1.92 0-3.546-1.651-3.546-3.571v-28.429c0-1.907 1.613-3.546 3.546-3.546h217.792c1.92 0 3.558 1.639 3.558 3.546v28.429c0 1.92-1.639 3.571-3.558 3.571h-217.792zM460.557 106.791h-40.256c-8.486 0-15.411 6.861-15.411 15.347v28.429c0 8.486 6.925 15.373 15.411 15.373h40.256c8.486 0 15.36-6.887 15.36-15.373v-28.429c0.013-8.486-6.861-15.347-15.36-15.347zM420.301 154.137c-1.945 0-3.571-1.651-3.571-3.571v-28.429c0-1.907 1.625-3.546 3.571-3.546h40.243c1.92 0 3.546 1.639 3.546 3.546v28.429c0 1.92-1.625 3.571-3.546 3.571h-40.243zM140.966 177.767h-63.91c-8.486 0-15.398 6.938-15.398 15.411v28.493c0 8.487 6.912 15.399 15.398 15.399h63.923c8.487 0 15.386-6.912 15.386-15.399v-28.493c-0.013-8.474-6.912-15.411-15.399-15.411zM77.031 225.242c-1.945 0-3.546-1.638-3.546-3.571v-28.493c0-1.945 1.6-3.546 3.546-3.546h63.923c1.92 0 3.546 1.6 3.546 3.546v28.493c0 1.933-1.625 3.571-3.546 3.571h-63.923zM211.981 177.767h-28.416c-8.487 0-15.386 6.938-15.386 15.411v28.493c0 8.487 6.899 15.399 15.386 15.399h28.416c8.487 0 15.386-6.912 15.386-15.399v-28.493c0-8.474-6.899-15.411-15.386-15.411zM183.565 225.242c-1.92 0-3.546-1.638-3.546-3.571v-28.493c0-1.945 1.625-3.546 3.546-3.546h28.416c1.92 0 3.546 1.6 3.546 3.546v28.493c0 1.933-1.625 3.571-3.546 3.571h-28.416zM283.008 177.767h-28.416c-8.487 0-15.399 6.938-15.399 15.411v28.493c0 8.487 6.912 15.399 15.399 15.399h28.416c8.461 0 15.36-6.912 15.36-15.399v-28.493c0.013-8.474-6.899-15.411-15.36-15.411zM254.592 225.242c-1.946 0-3.546-1.638-3.546-3.571v-28.493c0-1.945 1.6-3.546 3.546-3.546h28.403c1.907 0 3.546 1.6 3.546 3.546v28.493c0 1.933-1.639 3.571-3.546 3.571h-28.403zM354.010 177.767h-28.416c-8.486 0-15.385 6.938-15.385 15.411v28.493c0 8.487 6.899 15.399 15.385 15.399h28.416c8.499 0 15.385-6.912 15.385-15.399v-28.493c0-8.474-6.887-15.411-15.385-15.411zM325.594 225.242c-1.92 0-3.546-1.638-3.546-3.571v-28.493c0-1.945 1.625-3.546 3.546-3.546h28.429c1.92 0 3.533 1.6 3.533 3.546v28.493c0 1.933-1.613 3.571-3.533 3.571h-28.429zM460.557 177.767h-63.936c-8.486 0-15.36 6.938-15.36 15.411v28.493c0 8.487 6.873 15.399 15.36 15.399h63.936c8.486 0 15.36-6.912 15.36-15.399v-28.493c0.013-8.474-6.861-15.411-15.36-15.411zM396.621 225.242c-1.945 0-3.546-1.638-3.546-3.571v-28.493c0-1.945 1.6-3.546 3.546-3.546h63.911c1.92 0 3.546 1.6 3.546 3.546v28.493c0 1.933-1.625 3.571-3.546 3.571h-63.911z" />
<glyph unicode="&#xe642;" d="M347.353 407.257c13.568-13.568 13.568-35.546 0-49.101l-224-224c-13.568-13.568-35.546-13.568-49.101 0v0c-13.568 13.555-13.568 35.533 0 49.113l223.987 223.987c13.568 13.555 35.558 13.555 49.113 0v0zM423.783 262.963c13.555-13.568 13.555-35.545 0-49.113l-148.697-148.685c-13.568-13.568-35.546-13.568-49.113 0v0c-13.568 13.555-13.568 35.533 0 49.101l148.697 148.711c13.568 13.555 35.558 13.555 49.113-0.013v0z" />
<glyph unicode="&#xe643;" d="M357.606 241.92h-83.687v83.699c0 7.245-8.026 13.107-17.933 13.107s-17.92-5.863-17.92-13.107v-83.699h-83.673c-7.245 0-13.12-8.013-13.12-17.92 0-9.894 5.875-17.92 13.12-17.92h83.686v-83.673c0-7.245 8.013-13.12 17.92-13.12s17.933 5.875 17.933 13.12v83.673h83.686c7.232 0 13.107 8.026 13.107 17.92 0 9.907-5.875 17.92-13.12 17.92z" />
<glyph unicode="&#xe644;" d="M381.926 259.827c12.442 12.531 5.965 37.12-15.36 58.445l-11.993 11.981c-13.606 13.632-29.325 21.773-41.92 21.747-8.384-0.025-13.606-3.546-16.55-6.451l-118.925-118.861c-1.561-1.536-2.675-3.481-3.277-5.606l-26.227-93.901c-1.255-4.442 0-9.216 3.277-12.519 3.264-3.251 8.038-4.531 12.493-3.277l93.914 26.202c2.125 0.627 4.045 1.753 5.606 3.303l118.963 118.938zM336.499 312.128l11.993-11.981c10.777-10.752 14.041-20.16 14.195-23.36l-23.68-23.577-49.536 49.536 23.68 23.642c3.2-0.218 12.595-3.533 23.347-14.259zM186.778 137.984l-12.531 12.531 14.362 51.418 2.982 2.969 18.137-4.505 5.415-21.978 21.709-5.146 0.192-0.231 4.327-17.549-3.2-3.2-51.392-14.31z" />
<glyph unicode="&#xe645;" d="M344.921 197.849v146.445c0 17.318-14.080 31.385-31.399 31.385h-177.817c-17.319 0-31.386-14.080-31.386-31.385v-177.817c0-17.305 14.080-31.373 31.386-31.373h146.445c0-34.675 28.122-62.771 62.771-62.771s62.745 28.096 62.745 62.771c0.013 34.649-28.096 62.745-62.745 62.745zM223.373 176.423c-46.477 0-84.224 37.773-84.224 84.237 0 46.451 37.773 84.237 84.224 84.237 46.438 0 84.237-37.786 84.237-84.237 0-46.438-37.773-84.237-84.237-84.237zM376.295 124.621h-20.928v-20.928h-20.954v20.928h-20.928v20.928h20.928v20.928h20.954v-20.928h20.928v-20.928zM223.373 326.4c-36.25 0-65.741-29.491-65.741-65.741 0-36.237 29.491-65.741 65.741-65.741 36.237 0 65.741 29.504 65.741 65.741 0 36.25-29.504 65.741-65.741 65.741z" />
<glyph unicode="&#xe647;" d="M252.185 169.664c0-51.549-41.788-93.337-93.338-93.337s-93.338 41.788-93.338 93.337c0 51.549 41.788 93.337 93.338 93.337s93.338-41.788 93.338-93.337zM258.265 93.581l102.029 176.73 102.041-176.73zM271.065 200.986h21.606l44.851 77.683v93.017h-170.688v-85.837c49.971-3.405 91.226-38.183 104.231-84.864z" />
<glyph unicode="&#xe649;" d="M61.529 216.115l-38.489-78.49 36.979 32.525 99.405-125.927 81.498 300.416h245.235l11.315 43.353h-290.317l-64.896-253.952zM348.902 239.386c15.552 21.696 28.032 36.903 37.529 45.632 9.472 8.755 18.726 13.12 27.725 13.12 10.765 0 18.202-3.789 22.285-11.341 2.176-3.93 3.277-8.679 3.277-14.285 0-5.734-2.265-10.995-6.745-15.731-4.519-4.762-9.984-7.13-16.384-7.13-3.981 0-8.423 1.536-13.427 4.608-4.992 3.072-8.768 4.608-11.366 4.608-5.056 0-9.869-2.637-14.438-7.962-4.582-5.312-12.467-16.55-23.654-33.753l3.878-21.005c2.074-10.777 3.776-19.635 5.12-26.56 1.382-6.95 2.88-13.337 4.531-19.226 2.189-8.128 4.365-14.016 6.553-17.651 2.189-3.623 5.401-5.466 9.639-5.466 3.815 0 8.474 2.88 13.939 8.615 2.995 3.072 7.577 8.755 13.709 16.998l8.615-6.093c-7.232-12.467-16.627-24.281-28.147-35.469-11.52-11.213-22.797-16.793-33.856-16.793-9.28 0-16.909 3.942-22.925 11.776-3.392 4.211-6.4 9.959-8.986 17.255-1.37 3.789-3.238 10.483-5.619 20.096s-3.917 15.539-4.595 17.792l-2.867-5.043c-13.517-23.783-23.399-39.219-29.657-46.375-9.408-10.611-20.327-15.923-32.743-15.923-7.078 0-13.261 2.471-18.509 7.462-5.248 4.954-7.872 11.085-7.872 18.355 0 6.029 1.946 11.584 5.837 16.704s9.319 7.654 16.269 7.654c4.237 0 9.459-1.523 15.642-4.595 6.208-3.072 10.265-4.634 12.185-4.634 4.224 0 7.859 1.92 10.931 5.76 3.059 3.853 9.113 13.376 18.099 28.595l8.179 13.811c-1.331 5.875-2.829 13.094-4.377 21.645-1.587 8.55-3.175 17.293-4.813 26.279l-3.277 17.843c-2.317 12.89-6.016 21.363-11.046 25.434-2.88 2.394-7.565 3.571-14.118 3.571-0.691 0-2.329-0.103-4.902-0.307-2.611-0.217-5.197-0.461-7.795-0.743v11.341c12.275 1.536 25.741 3.494 40.423 5.875 14.669 2.368 24.435 4.045 29.351 5.031 4.096-5.594 7.475-12.378 10.151-20.339 2.649-7.987 4.647-16.448 6.029-25.395l2.227-14.041z" />
<glyph unicode="&#xe650;" d="M352 236.8h-63.68c-17.498 17.498-17.498 45.849 0 63.347h-0.474c8 8.089 12.954 19.187 12.954 31.462 0 24.755-20.045 44.8-44.8 44.8s-44.8-20.045-44.8-44.8c0-12.275 4.953-23.373 12.941-31.462h-0.448c17.498-17.498 17.498-45.85 0-63.347h-63.693c-14.119 0-25.6-11.482-25.6-25.6v-51.2c0-14.131 11.482-25.6 25.6-25.6h19.2v-25.6h153.6v25.6h19.2c14.131 0 25.6 11.469 25.6 25.6v51.2c0 14.119-11.469 25.6-25.6 25.6zM351.962 160h-191.962v51.2h192l-0.038-51.2z" />
<glyph unicode="&#xe651;" d="M336.678 217.472l-161.357 137.267v-212.723l55.578 51.827 48.281-100.582 34.624 16.601-48.231 100.48z" />
<glyph unicode="&#xe652;" d="M422.375 77.491l-121.869 121.882c17.831 21.248 28.57 48.589 28.57 78.425 0 67.418-54.848 122.265-122.279 122.265s-122.253-54.848-122.253-122.265c0-67.456 54.809-122.279 122.253-122.279 25.113 0 48.487 7.629 67.93 20.647l123.174-123.175c6.745-6.759 17.728-6.759 24.474 0 6.771 6.771 6.771 17.728 0 24.499zM112.192 277.811c0 52.173 42.419 94.617 94.605 94.617 52.173 0 94.631-42.445 94.631-94.617 0-52.186-42.419-94.631-94.63-94.631-52.185 0-94.605 42.419-94.605 94.63z" />
</font>
</defs>
</svg>
