<?xml version="1.0" standalone="no"?>
<!DOCTYPE svg PUBLIC "-//W3C//DTD SVG 1.1//EN" "http://www.w3.org/Graphics/SVG/1.1/DTD/svg11.dtd" >
<svg xmlns="http://www.w3.org/2000/svg">
<metadata>Generated by IcoMoon</metadata>
<defs>
<font id="mathex" horiz-adv-x="1024">
<font-face units-per-em="1024" ascent="960" descent="-64" />
<missing-glyph horiz-adv-x="1024" />
<glyph unicode="&#x20;" d="" horiz-adv-x="512" />
<glyph unicode="&#x28;" d="M311.296 27.136l-12.288-16.384q-118.784 67.584-184.32 186.368t-65.536 252.928q0 283.648 252.928 434.176l9.216-16.384q-104.448-89.088-139.264-175.616t-34.816-239.104q0-151.552 35.84-245.76t138.24-180.224z" horiz-adv-x="341" />
<glyph unicode="&#x29;" d="M29.696 867.84l12.288 16.384q116.736-69.632 183.296-188.416t66.56-250.88q0-279.552-252.928-434.176l-9.216 16.384q105.472 87.040 139.776 173.568t34.304 241.152q0 155.648-34.304 249.344t-139.776 176.64z" horiz-adv-x="341" />
<glyph unicode="&#x2b;" d="M651.264 417.28h-267.264v-267.264h-67.584v267.264h-267.264v67.584h267.264v267.264h67.584v-267.264h267.264v-67.584z" horiz-adv-x="701" />
<glyph unicode="&#x3c;" d="M635.904 167.424l-578.56 279.552v10.24l578.56 281.6v-66.56l-442.368-220.16 442.368-220.16v-64.512z" horiz-adv-x="701" />
<glyph unicode="&#x3d;" d="M652.288 519.68h-603.136v67.584h603.136v-67.584zM652.288 314.88h-603.136v67.584h603.136v-67.584z" horiz-adv-x="701" />
<glyph unicode="&#x3e;" d="M635.904 446.976l-578.56-279.552v64.512l442.368 220.16-442.368 220.16v66.56l578.56-281.6v-10.24z" horiz-adv-x="701" />
<glyph unicode="&#x5b;" d="M306.176 32.256h-216.064v837.632h216.064v-25.6h-84.992q-26.624 0-39.936-11.264t-13.312-37.888v-681.984q0-55.296 53.248-55.296h84.992v-25.6z" horiz-adv-x="341" />
<glyph unicode="&#x5d;" d="M250.88 32.256h-216.064v25.6h90.112q26.624 0 37.376 11.264t10.752 35.84v684.032q0 55.296-52.224 55.296h-86.016v25.6h216.064v-837.632z" horiz-adv-x="341" />
<glyph unicode="&#x7b;" d="M358.4 17.92v-11.264q-86.016 1.024-123.904 25.6-45.056 28.672-45.056 117.76v181.248q0 53.248-17.92 76.8t-69.12 39.936q51.2 15.36 69.12 38.912t17.92 76.8v182.272q0 89.088 45.056 116.736 38.912 24.576 123.904 25.6v-11.264q-53.248-13.312-73.216-40.96t-19.968-84.992v-172.032q0-63.488-19.456-90.112t-76.8-41.984q57.344-14.336 76.8-40.96t19.456-90.112v-172.032q0-57.344 19.968-84.992t73.216-40.96z" horiz-adv-x="492" />
<glyph unicode="&#x7d;" d="M302.080 744.96v-181.248q0-53.248 17.92-76.8t69.12-38.912q-51.2-16.384-69.12-39.936t-17.92-76.8v-182.272q0-89.088-45.056-116.736-38.912-24.576-123.904-25.6v11.264q53.248 13.312 73.216 40.96t19.968 84.992v172.032q0 63.488 19.456 90.112t76.8 41.984q-57.344 14.336-76.8 40.448t-19.456 90.624v172.032q0 57.344-19.968 84.992t-73.216 40.96v11.264q86.016-1.024 123.904-25.6 45.056-28.672 45.056-117.76z" horiz-adv-x="492" />
<glyph unicode="&#xb0;" d="M351.232 737.792q0-61.44-42.496-103.936t-103.936-42.496q-62.464 0-104.448 42.496t-41.984 104.96q0 61.44 43.008 103.424t105.472 41.984q59.392 0 101.888-43.008t42.496-103.424zM311.296 738.816q0 45.056-32.256 77.824t-76.288 32.768q-41.984 0-73.216-33.28t-31.232-78.336q0-46.080 31.232-78.848t75.264-32.768 75.264 33.28 31.232 79.36z" horiz-adv-x="410" />
<glyph unicode="&#xb1;" d="M652.288 439.808h-268.288v-214.016h-67.584v214.016h-267.264v67.584h267.264v198.656h67.584v-198.656h268.288v-67.584zM652.288 102.912h-603.136v67.584h603.136v-67.584z" horiz-adv-x="701" />
<glyph unicode="&#xb7;" d="M185.344 451.072q0-22.528-16.896-38.912t-40.448-16.384-39.936 16.384-16.384 39.936 16.896 40.448 40.448 16.896q22.528 0 39.424-17.408t16.896-40.96z" horiz-adv-x="256" />
<glyph unicode="&#xd7;" d="M611.328 214.528l-47.104-48.128-236.544 235.52-236.544-235.52-47.104 47.104 235.52 236.544-235.52 236.544 48.128 47.104 235.52-235.52 236.544 235.52 47.104-46.080-235.52-237.568z" horiz-adv-x="655" />
<glyph unicode="&#xf7;" d="M346.112 662.016q0-22.528-16.896-38.912t-40.448-16.384-39.936 16.384-16.384 39.936 16.896 40.448 40.448 16.896q22.528 0 39.424-17.408t16.896-40.96zM546.816 417.28h-516.096v67.584h516.096v-67.584zM346.112 237.056q0-22.528-16.896-38.912t-40.448-16.384-39.936 16.384-16.384 39.936 16.896 40.448 40.448 16.896q22.528 0 39.424-17.408t16.896-40.96z" horiz-adv-x="578" />
<glyph unicode="&#x391;" d="M723.968 192h-261.12v19.456l46.080 4.096q10.24 1.024 17.408 9.728t7.168 19.968q0 26.624-19.456 71.68l-41.984 96.256h-268.288l-47.104-116.736q-9.216-23.552-9.216-43.008 0-23.552 16.896-32.768t54.784-9.216v-19.456h-203.776v19.456q43.008 4.096 62.464 31.232t66.56 139.776l210.944 499.712h20.48l251.904-576.512q22.528-53.248 40.448-71.68t55.808-22.528v-19.456zM457.728 455.168l-118.784 281.6-117.76-281.6h236.544z" horiz-adv-x="739" />
<glyph unicode="&#x392;" d="M432.128 549.376v-1.024q81.92-14.336 128.512-57.856t46.592-116.224q0-84.992-66.56-133.632t-178.176-48.64h-345.088v19.456q60.416 2.048 79.36 19.968t18.944 76.288v447.488q0 59.392-17.408 75.264t-80.896 19.968v19.456h286.72q132.096 0 200.192-44.544t68.096-126.464q0-66.56-35.328-100.864t-104.96-48.64zM220.16 566.784h64.512q183.296 0 183.296 126.976 0 73.728-50.688 105.984t-172.544 32.256q-24.576 0-24.576-32.768v-232.448zM220.16 525.824v-249.856q0-25.6 13.824-35.84t49.664-10.24q98.304 0 152.064 30.72t53.76 114.688q0 87.040-53.248 118.784t-149.504 31.744h-66.56z" horiz-adv-x="683" />
<glyph unicode="&#x393;" d="M590.848 697.856h-25.6q-8.192 76.8-37.376 104.96t-105.984 28.16h-179.2q-21.504 0-29.184-8.192t-7.68-32.768v-482.304q0-59.392 16.384-76.288t76.8-19.968v-19.456h-287.744v19.456q58.368 4.096 74.24 22.528t15.872 84.992v437.248q0 56.32-15.36 73.216t-73.728 20.992v19.456h573.44z" horiz-adv-x="601" />
<glyph unicode="&#x394;" d="M691.2 192h-642.048l306.176 690.176h20.48zM536.576 286.208l-197.632 450.56-199.68-450.56h397.312z" horiz-adv-x="739" />
<glyph unicode="&#x395;" d="M611.328 365.056l-47.104-173.056h-551.936v19.456q58.368 4.096 73.728 20.992t15.36 76.288v446.464q0 57.344-15.872 74.752t-73.216 20.48v19.456h542.72l4.096-146.432h-25.6q-8.192 50.176-28.672 70.144t-76.288 28.672-186.88 8.704q-22.528 0-29.184-6.656t-6.656-30.208v-225.28h154.624q64.512 0 85.504 18.432t30.208 79.872h23.552v-239.616h-23.552q-9.216 64.512-29.696 81.92t-86.016 17.408h-154.624v-248.832q0-30.72 21.504-39.424t81.92-8.704q135.168 0 186.88 26.112t86.528 109.056h28.672z" horiz-adv-x="626" />
<glyph unicode="&#x396;" d="M612.352 372.224l-25.6-180.224h-576.512v15.36l447.488 623.616h-219.136q-101.376 0-137.216-35.84-18.432-19.456-26.112-38.4t-15.872-61.952h-26.624l21.504 175.104h537.6v-15.36l-442.368-623.616h258.048q79.872 0 119.808 28.672 23.552 16.384 34.816 38.4t26.624 74.24h23.552z" horiz-adv-x="627" />
<glyph unicode="&#x397;" d="M719.872 192h-285.696v19.456q59.392 4.096 74.752 23.040t15.36 84.48v195.584h-310.272v-206.848q0-56.32 16.384-74.752t72.704-21.504l1.024-19.456h-285.696v19.456q60.416 4.096 75.776 22.016t15.36 83.456v436.224q0 59.392-15.872 75.776t-75.264 21.504v19.456h286.72v-19.456q-57.344-5.12-74.24-22.016t-16.896-75.264v-193.536h310.272v193.536q0 59.392-15.872 75.776t-75.264 21.504v19.456h286.72v-19.456q-57.344-5.12-74.24-22.016t-16.896-75.264v-447.488q0-54.272 16.896-72.192t74.24-22.016v-19.456z" horiz-adv-x="739" />
<glyph unicode="&#x398;" d="M513.024 433.664h-25.6q-7.168 31.744-20.48 47.616t-38.912 15.872h-107.52q-27.648 0-39.936-14.336t-24.576-49.152h-25.6q10.24 37.888 10.24 89.088 0 69.632-11.264 120.832h25.6q11.264-33.792 23.552-46.592t40.96-12.8h108.544q47.104 0 59.392 59.392h25.6q-11.264-45.056-11.264-81.92 0-77.824 11.264-128zM704.512 530.944q0-157.696-93.184-255.488t-241.664-97.792q-149.504 0-242.176 98.304t-92.672 258.048q0 155.648 92.672 252.928t242.176 97.28 242.176-99.84 92.672-253.44zM587.776 537.088q0 87.040-24.576 156.16t-68.608 105.984q-57.344 48.128-125.952 48.128-87.040 0-146.432-68.608-32.768-36.864-51.712-104.96t-18.944-141.824q0-186.368 92.16-271.36 50.176-46.080 126.976-46.080 79.872 0 132.096 49.152 84.992 81.92 84.992 273.408z" horiz-adv-x="739" />
<glyph unicode="&#x399;" d="M322.56 192h-304.128v19.456q64.512 2.048 81.92 18.944t17.408 76.288v449.536q0 59.392-16.384 74.752t-82.944 19.456v19.456h304.128v-19.456q-64.512-3.072-82.432-19.456t-17.92-74.752v-449.536q0-57.344 18.432-75.264t81.92-19.968v-19.456z" horiz-adv-x="341" />
<glyph unicode="&#x39a;" d="M740.352 192h-310.272v19.456l27.648 1.024q43.008 1.024 43.008 24.576 0 18.432-33.28 57.856t-107.008 116.224l-102.4 105.472-26.624-21.504v-189.44q0-57.344 16.384-73.216t74.752-20.992v-19.456h-288.768v19.456q60.416 3.072 76.8 22.528t16.384 86.016v434.176q0 57.344-16.384 74.752t-75.776 21.504v19.456h288.768v-19.456q-62.464-4.096-77.312-20.48t-14.848-76.8v-204.8l182.272 167.936q44.032 40.96 61.952 62.464t17.92 38.912q0 16.384-8.704 23.552t-33.28 8.192l-25.6 1.024v19.456h265.216v-19.456q-52.224-4.096-79.36-17.92t-80.384-65.024l-190.464-182.272 239.616-262.144q63.488-69.632 93.696-90.624t66.048-20.992v-19.456z" horiz-adv-x="749" />
<glyph unicode="&#x39b;" d="M703.488 192h-261.12v19.456q4.096 0 12.288 0.512t12.288 0.512 10.752 0.512 10.24 1.536 8.192 2.56 7.168 4.096 5.12 6.144 3.584 7.68 1.024 10.24q0 22.528-19.456 71.68l-163.84 420.864h-2.048l-171.008-441.344q-9.216-23.552-9.216-43.008 0-23.552 16.896-32.768t54.784-9.216v-19.456h-203.776v19.456q44.032 4.096 64.512 32.256t64.512 138.752l200.704 499.712h20.48l241.664-576.512q21.504-52.224 39.424-71.168t56.832-23.040v-19.456z" horiz-adv-x="719" />
<glyph unicode="&#x39c;" d="M884.736 192h-286.72v19.456q60.416 4.096 76.288 23.040t15.872 83.456v459.776l-261.12-585.728h-14.336l-258.048 562.176v-407.552q0-82.944 17.408-107.52t77.824-27.648v-19.456h-239.616v19.456q45.056 3.072 64.512 13.312t27.136 36.352 7.68 85.504v407.552q0 58.368-17.408 75.264t-79.872 20.992v19.456h202.752l236.544-514.048 226.304 514.048h203.776v-19.456q-55.296-1.024-72.192-19.456t-16.896-75.776v-448.512q0-54.272 16.896-72.704t73.216-22.528v-19.456z" horiz-adv-x="910" />
<glyph unicode="&#x39d;" d="M723.968 869.888v-19.456q-52.224-5.12-67.584-18.432-16.384-14.336-23.040-38.912t-6.656-81.92v-530.432h-18.432l-451.584 562.176v-397.312q0-77.824 17.408-101.888t77.824-32.256v-19.456h-239.616v19.456q63.488 7.168 81.408 30.208t17.92 103.936v450.56q-26.624 32.768-45.056 43.52t-54.272 10.752v19.456h174.080l395.264-494.592v348.16q0 77.824-19.456 100.352-12.288 13.312-27.136 17.92t-53.76 8.704v19.456h242.688z" horiz-adv-x="739" />
<glyph unicode="&#x39e;" d="M604.16 696.832h-25.6q-8.192 50.176-25.6 69.632t-57.344 19.456h-332.8q-39.936 0-57.856-18.944t-25.088-72.192h-25.6v175.104h549.888v-173.056zM515.072 415.232h-23.552q0 78.848-70.656 78.848h-189.44q-32.768 0-46.080-19.456t-18.432-59.392h-23.552v238.592h23.552q0-41.984 16.384-59.904t50.176-17.92h190.464q35.84 0 51.2 17.92t16.384 59.904h23.552v-238.592zM628.736 192h-599.040v175.104h25.6q0-44.032 23.552-66.048t63.488-22.016h366.592q94.208 0 94.208 88.064h25.6v-175.104z" horiz-adv-x="658" />
<glyph unicode="&#x39f;" d="M704.512 530.944q0-157.696-93.184-255.488t-241.664-97.792q-149.504 0-242.176 98.304t-92.672 258.048q0 155.648 92.672 252.928t242.176 97.28 242.176-99.84 92.672-253.44zM587.776 537.088q0 87.040-24.576 156.16t-68.608 105.984q-57.344 48.128-125.952 48.128-87.040 0-146.432-68.608-32.768-36.864-51.712-104.96t-18.944-141.824q0-186.368 92.16-271.36 50.176-46.080 126.976-46.080 79.872 0 132.096 49.152 84.992 81.92 84.992 273.408z" horiz-adv-x="739" />
<glyph unicode="&#x3a0;" d="M719.872 192h-285.696v19.456q59.392 4.096 74.752 23.040t15.36 84.48v475.136q0 21.504-7.168 29.184t-29.696 7.68h-236.544q-20.48 0-28.672-6.656t-8.192-27.136v-489.472q0-56.32 16.384-74.752t72.704-21.504l1.024-19.456h-285.696v19.456q60.416 4.096 75.776 22.016t15.36 83.456v436.224q0 59.392-15.872 75.776t-75.264 21.504v19.456h701.44v-19.456q-57.344-5.12-74.24-22.016t-16.896-75.264v-447.488q0-54.272 16.896-72.192t74.24-22.016v-19.456z" horiz-adv-x="739" />
<glyph unicode="&#x3a1;" d="M16.384 869.888h265.216q145.408 0 222.208-64.512 51.2-43.008 51.2-121.856 0-81.92-58.368-134.144-43.008-38.912-88.064-50.688t-131.072-11.776q-29.696 0-70.656 3.072v-183.296q0-58.368 16.896-75.264t79.36-19.968v-19.456h-286.72v19.456q59.392 4.096 72.704 21.504t13.312 83.968v439.296q0 57.344-14.848 73.728t-71.168 20.48v19.456zM206.848 795.136v-264.192q35.84-3.072 62.464-3.072 82.944 0 128.512 40.448t45.568 110.080q0 82.944-47.104 118.272t-153.6 35.328q-21.504 0-28.672-7.68t-7.168-29.184z" horiz-adv-x="570" />
<glyph unicode="&#x3a3;" d="M614.4 400.896l-28.672-208.896h-555.008v15.36l273.408 316.416-273.408 330.752v15.36h538.624v-164.864h-25.6q-11.264 74.752-46.080 100.352t-107.52 25.6h-212.992l217.088-263.168-242.688-278.528h317.44q57.344 0 83.456 25.6t38.4 86.016h23.552z" horiz-adv-x="639" />
<glyph unicode="&#x3a4;" d="M607.232 695.808h-25.6q-16.384 83.968-45.568 107.52t-111.104 23.552h-60.416v-521.216q0-58.368 17.408-74.752t80.896-19.456v-19.456h-299.008v19.456q64.512 4.096 80.384 21.504t15.872 84.992v508.928h-61.44q-82.944 0-111.616-23.552t-44.032-107.52h-25.6l7.168 174.080h575.488z" horiz-adv-x="626" />
<glyph unicode="&#x3a5;" d="M719.872 865.792v-19.456q-17.408 5.12-32.768 5.12-105.472 0-182.784-104.448t-77.312-243.712v-197.632q0-58.368 19.456-74.752t86.016-19.456v-19.456h-313.344v19.456q69.632 5.12 86.528 22.016t16.896 84.48v176.128q-22.528 179.2-74.752 257.536t-135.168 79.36q-24.576 0-74.752-18.432l-8.192 16.384q26.624 23.552 64.512 38.4t72.704 14.848q196.608 0 235.52-244.736h2.048q21.504 106.496 94.72 174.080t155.136 67.584q39.936 0 65.536-13.312z" horiz-adv-x="739" />
<glyph unicode="&#x3a6;" d="M442.368 785.92v-20.48q56.32 0 108.032-13.312t96.256-40.448 71.68-73.728 27.136-108.032q0-57.344-27.136-103.936t-69.632-73.728-89.6-40.96-91.136-13.824h-25.6v-17.408q0-38.912 23.040-52.224t82.432-16.384v-19.456h-313.344v19.456q53.248 0 78.336 14.848t25.088 52.736v18.432h-17.408q-139.264 0-211.968 63.488t-72.704 168.96q0 61.44 26.112 108.032t70.656 73.728 96.256 40.448 109.056 13.312v20.48q0 36.864-19.968 50.688t-83.456 13.824v19.456h313.344v-19.456q-63.488 0-84.48-15.36t-20.992-49.152zM440.32 727.552v-392.192q76.8 0 135.168 49.664t58.368 132.608-50.688 146.432-142.848 63.488zM339.968 335.36v392.192q-81.92 0-137.216-65.024t-55.296-144.896q0-75.776 51.712-129.024t140.8-53.248z" horiz-adv-x="781" />
<glyph unicode="&#x3a7;" d="M720.896 192h-303.104v19.456l26.624 2.048q51.2 3.072 51.2 29.696 0 21.504-52.224 100.352l-97.28 144.384-121.856-152.576q-54.272-67.584-54.272-91.136 0-15.36 16.896-22.528t60.928-10.24v-19.456h-237.568v19.456q39.936 4.096 65.024 23.552t83.456 93.184l159.744 199.68-108.544 158.72q-71.68 104.448-103.424 131.584t-83.968 32.256v19.456h308.224v-19.456l-29.696-1.024q-23.552-1.024-35.328-7.168t-11.776-22.528q0-6.144 1.536-12.8t6.144-15.872 8.704-16.896 12.8-20.992 14.848-22.528 19.456-28.16 21.504-31.232l45.056-65.536 114.688 143.36q40.96 50.176 40.96 68.608 0 17.408-14.336 24.576t-55.296 8.192v19.456h242.688v-19.456q-49.152-3.072-77.824-22.016t-77.824-79.36l-146.432-181.248 196.608-280.576q29.696-43.008 51.2-56.832t62.464-18.944v-19.456z" horiz-adv-x="739" />
<glyph unicode="&#x3a8;" d="M741.376 898.56v-19.456q-26.624-5.12-37.376-38.4t-10.752-68.096q0-15.36 2.048-46.080t2.048-46.080q0-72.704-38.4-121.856t-95.744-69.632-129.024-20.48v-162.816q0-59.392 22.016-75.776t83.456-18.432v-19.456h-313.344v19.456q66.56 3.072 84.992 22.016t18.432 85.504v149.504q-71.68 0-129.024 20.48t-95.744 69.632-38.4 121.856q0 15.36 2.048 46.080t2.048 46.080q0 34.816-10.752 68.096t-37.376 38.4v19.456q158.72 0 158.72-185.344 0-33.792 2.048-59.392t10.752-54.784 22.528-48.128 39.936-31.744 61.952-12.8h11.264v261.12q0 50.176-25.088 66.56t-78.336 16.384v19.456h313.344v-19.456q-55.296 0-80.384-15.36t-25.088-67.584v-261.12h11.264q35.84 0 61.952 12.8t39.936 31.744 22.528 48.128 10.752 54.784 2.048 59.392q0 185.344 158.72 185.344z" horiz-adv-x="764" />
<glyph unicode="&#x3a9;" d="M732.16 192h-292.864l7.168 164.864q63.488 15.36 103.936 87.040t40.448 156.672q0 111.616-55.808 179.2t-154.112 67.584-154.112-73.728-55.808-173.056q0-79.872 39.424-152.576t103.936-91.136l9.216-164.864h-293.888v175.104h25.6q1.024-46.080 14.848-61.952t48.64-15.872h154.624l-2.048 37.888q-108.544 30.72-162.816 96.256t-54.272 175.104q0 111.616 89.6 198.656t237.056 87.040 237.056-83.456 89.6-202.24q0-208.896-220.16-271.36l-2.048-37.888h157.696q60.416 0 63.488 75.776h25.6v-173.056z" horiz-adv-x="762" />
<glyph unicode="&#x3b1;" d="M526.336 324.096h15.36q0-60.416-22.016-101.376t-58.88-40.96q-57.344 0-81.92 112.64-30.72-55.296-66.56-83.968t-91.136-28.672q-82.944 0-137.216 67.072t-54.272 171.52q0 101.376 54.784 172.032t145.92 70.656q61.44 0 101.888-43.52t55.808-105.984l46.080 139.264h99.328l-111.616-269.312q10.24-47.104 30.208-92.672t40.448-45.568q24.576 0 33.792 78.848zM338.944 404.992q-33.792 229.376-113.664 229.376-43.008 0-73.216-40.448t-30.208-122.368q0-34.816 4.608-73.728t15.36-83.968 33.792-74.24 54.784-29.184q71.68 0 108.544 194.56z" horiz-adv-x="556" />
<glyph unicode="&#x3b2;" d="M352.256 600.576l2.048-1.024q57.344-13.312 90.112-62.464t32.768-111.616q0-96.256-60.416-169.984t-148.48-73.728q-34.816 0-58.88 8.704t-50.688 33.28v-171.008q0-45.056-16.384-82.944h-86.016q16.384 34.816 16.384 82.944v521.216q0 317.44 200.704 317.44 63.488 0 113.664-46.080t50.176-112.64q0-38.912-15.36-70.656-22.528-43.008-69.632-61.44zM158.72 688.64v-405.504q0-23.552 33.28-46.080t73.216-22.528q56.32 0 90.112 52.224t33.792 132.096q0 63.488-15.872 107.52t-34.304 59.904-35.84 15.872q-11.264 0-24.064-3.584t-23.040-3.584q-17.408 0-28.672 7.168t-11.264 18.432q0 22.528 43.008 22.528 4.096 0 24.576-4.096t28.672-4.096q20.48 0 31.232 25.088t10.752 56.832q0 29.696-4.608 56.32t-14.848 52.736-30.72 41.472-49.152 15.36q-46.080 0-71.168-43.008t-25.088-115.712v-15.36z" horiz-adv-x="508" />
<glyph unicode="&#x3b3;" d="M454.656 652.8l-190.464-460.8q14.336-64.512 14.336-120.832 0-102.4-62.464-102.4-24.576 0-37.376 19.456t-12.8 50.176q0 41.984 18.432 100.352 1.024 5.12 33.792 90.112-38.912 359.424-133.12 359.424-18.432 0-36.352-23.552t-23.040-66.56h-15.36q0 67.584 22.528 114.688t66.56 47.104q33.792 0 58.88-28.16t39.936-77.824 23.040-92.672 14.848-99.328 9.728-70.656l106.496 361.472h102.4z" horiz-adv-x="485" />
<glyph unicode="&#x3b4;" d="M226.304 627.2v1.024q-69.632 28.672-104.96 65.536t-35.328 90.112 52.736 80.384 115.2 27.136q60.416 0 116.736-20.48t56.32-56.32q0-16.384-8.704-30.208t-27.136-13.824q-21.504 0-36.864 12.288t-25.088 26.624-38.4 26.624-73.728 12.288q-30.72 0-61.44-15.872t-30.72-46.592q0-26.624 33.28-48.64t100.352-51.2 102.912-50.688q119.808-73.728 119.808-206.848 0-107.52-62.464-177.152t-166.912-69.632q-97.28 0-159.744 69.632t-62.464 161.792q0 79.872 52.736 140.8t143.872 73.216zM389.12 404.992q0 57.344-35.84 120.32t-92.16 75.264q-65.536 0-102.4-48.128t-36.864-113.664q0-37.888 13.824-87.552t39.424-88.576q15.36-23.552 41.472-37.888t49.664-14.336q58.368 0 90.624 51.2t32.256 143.36z" horiz-adv-x="512" />
<glyph unicode="&#x3b5;" d="M402.432 340.48l14.336-9.216q-64.512-149.504-196.608-149.504-62.464 0-104.448 14.848t-59.904 38.912-24.064 43.008-6.144 38.4q0 40.96 30.208 74.752t72.192 40.96q-36.864 10.24-57.856 36.864t-20.992 59.392q0 55.296 53.248 94.72t145.408 39.424q62.464 0 111.104-25.6t48.64-79.872q0-20.48-14.848-31.744t-33.28-11.264-31.744 12.288-13.312 30.72q0 11.264 2.048 20.992t2.048 13.824q0 40.96-89.088 40.96-43.008 0-69.12-29.184t-26.112-70.144q0-36.864 22.528-61.952t63.488-25.088q16.384 0 33.28 4.608t29.184 4.608q38.912 0 38.912-21.504 0-11.264-12.8-18.944t-36.352-7.68q-8.192 0-20.992 3.072t-24.064 3.072q-39.936 0-74.752-23.040t-34.816-67.072q0-41.984 32.256-66.56t75.264-24.576q54.272 0 96.256 26.624t80.896 80.896z" horiz-adv-x="450" />
<glyph unicode="&#x3b6;" d="M156.672 891.392l9.216-15.36q-30.72-14.336-47.104-35.328t-16.384-38.4q0-19.456 11.264-30.72t23.040-14.336 34.304-6.144q22.528 37.888 70.144 75.264t84.48 37.376q39.936 0 39.936-34.816t-53.76-69.12-118.272-40.448q-43.008-48.128-76.288-126.976t-33.28-160.768q0-157.696 126.976-157.696 9.216 0 25.088 1.024t27.136 1.024q78.848 0 116.224-35.328t37.376-110.080q0-65.536-48.128-113.664t-98.304-48.128q-31.744 0-52.736 14.848t-20.992 42.496q0 18.432 11.264 30.208t31.744 11.776q10.24 0 28.672-14.848t33.792-14.848q32.768 0 57.856 23.552t25.088 59.392q0 32.768-25.6 51.2t-66.56 18.432q-3.072 0-41.984-4.608t-56.32-4.608q-158.72 0-158.72 215.040 0 92.16 25.088 162.816t86.528 159.744l-1.024 3.072q-32.768 0-61.44 20.48t-28.672 56.32q0 64.512 100.352 92.16z" horiz-adv-x="452" />
<glyph unicode="&#x3b7;" d="M462.848-30.208h-87.040q-15.36 28.672-15.36 88.064v449.536q0 99.328-74.752 99.328-47.104 0-105.472-58.368v-356.352h-86.016v320.512q0 76.8-20.48 76.8-25.6 0-49.152-50.176l-14.336 6.144q53.248 112.64 105.472 112.64 33.792 0 45.056-15.872t16.384-61.952h1.024q72.704 82.944 147.456 82.944 57.344 0 89.088-39.936t31.744-104.448v-461.824q0-60.416 16.384-87.040z" horiz-adv-x="524" />
<glyph unicode="&#x3b8;" d="M479.232 532.992q0-156.672-60.928-253.952t-169.472-97.28q-135.168 0-190.464 141.312-30.72 77.824-30.72 217.088 0 156.672 60.928 253.952t169.472 97.28q64.512 0 104.448-22.016t69.632-72.192q47.104-78.848 47.104-264.192zM119.808 554.496h267.264q0 36.864-2.048 67.072t-6.656 68.096-14.848 66.56-25.088 53.76-39.424 38.912-55.296 13.824q-123.904 0-123.904-276.48v-31.744zM387.072 515.584v6.144h-267.264q1.024-64.512 6.656-112.128t19.456-96.768 43.52-75.776 72.704-26.624q62.464 0 93.696 81.92t31.232 223.232z" horiz-adv-x="508" />
<glyph unicode="&#x3b9;" d="M258.048 301.568l15.36-8.192q-53.248-111.616-115.712-111.616-60.416 0-60.416 90.112v272.384q0 50.176-33.792 50.176-23.552 0-43.008-4.096v18.432q64.512 19.456 158.72 54.272l4.096-4.096v-386.048q0-23.552 20.48-23.552 16.384 0 26.112 9.728t28.16 42.496z" horiz-adv-x="282" />
<glyph unicode="&#x3ba;" d="M515.072 192h-242.688v15.36h9.216q38.912 0 38.912 24.576 0 10.24-16.384 29.696l-134.144 162.816v-232.448h-86.016v349.184q0 36.864-9.216 49.664t-34.816 12.8q-6.144 0-32.768-2.048v16.384l30.72 8.192q61.44 16.384 128 36.864l4.096-2.048v-204.8q61.44 68.608 108.544 113.152t77.824 63.488 48.64 24.576 36.352 5.632q28.672 0 44.544-13.824t15.872-35.328q0-26.624-15.872-38.4t-35.328-11.776q-12.288 0-33.792 5.632t-31.744 5.632q-35.84 0-69.12-20.992t-85.504-76.288l177.152-206.848q27.648-32.768 50.688-46.080t56.832-17.408v-15.36z" horiz-adv-x="512" />
<glyph unicode="&#x3bb;" d="M488.448 332.288h15.36q-1.024-66.56-23.552-109.056t-62.464-42.496q-53.248 0-81.92 103.424l-73.728 271.36-147.456-363.52h-102.4l220.16 460.8-13.312 46.080q-15.36 54.272-39.424 87.552t-48.64 33.28q-23.552 0-39.424-16.896t-22.016-61.952h-15.36q0 59.392 20.48 104.96t63.488 45.568q39.936 0 62.464-36.352t46.080-118.272l114.688-399.36q24.576-84.992 65.536-84.992 17.408 0 36.864 19.968t24.576 59.904z" horiz-adv-x="509" />
<glyph unicode="&#x3bc;" d="M513.024 300.544l15.36-7.168q-54.272-111.616-112.64-111.616-62.464 0-62.464 82.944h-2.048q-57.344-82.944-128-82.944-50.176 0-64.512 28.672h-2.048v-152.576q0-53.248-16.384-88.064h-83.968q16.384 37.888 16.384 87.040v595.968h86.016v-319.488q0-41.984 27.136-67.072t60.928-25.088q48.128 0 82.944 31.744 14.336 12.288 18.944 23.040t4.608 35.328v321.536h86.016v-345.088q0-58.368 20.48-58.368 15.36 0 26.112 10.24t27.136 40.96z" horiz-adv-x="541" />
<glyph unicode="&#x3bd;" d="M434.176 663.040h19.456q0-146.432-37.888-233.472-38.912-89.088-114.688-158.72t-180.224-93.184h-23.552v366.592q0 50.176-33.792 50.176-25.6 0-43.008-4.096v18.432q64.512 19.456 158.72 54.272l4.096-4.096v-374.784h1.024q66.56 11.264 126.464 79.36t91.648 151.040 31.744 148.48z" horiz-adv-x="466" />
<glyph unicode="&#x3be;" d="M181.248 891.392l8.192-16.384q-60.416-20.48-60.416-59.392 0-44.032 39.936-47.104 74.752 53.248 141.312 53.248 47.104 0 47.104-33.792 0-26.624-44.032-47.104t-96.256-20.48q-34.816 0-52.736-19.968t-17.92-47.616q0-39.936 35.84-64.512 57.344 48.128 131.072 48.128 29.696 0 47.616-10.752t17.92-30.208q0-21.504-22.016-34.816t-45.056-17.408-44.544-4.096q-39.936 0-73.728 9.216-51.2-22.528-81.408-62.464t-30.208-94.208q0-117.76 118.784-117.76 10.24 0 33.792 1.024t28.672 1.024q153.6 0 153.6-140.288 0-69.632-47.616-118.272t-98.816-48.64q-31.744 0-52.736 14.848t-20.992 42.496q0 18.432 11.264 30.208t31.744 11.776q10.24 0 28.672-14.848t33.792-14.848q32.768 0 57.856 23.040t25.088 59.904q0 32.768-25.6 51.2t-66.56 18.432q-4.096 0-40.96-4.608t-51.2-4.608q-164.864 0-164.864 177.152 0 62.464 30.72 117.76t81.92 92.16q-43.008 28.672-43.008 82.944 0 52.224 35.84 84.992-24.576 3.072-41.472 18.944t-16.896 44.544q0 64.512 98.304 91.136z" horiz-adv-x="452" />
<glyph unicode="&#x3bf;" d="M484.352 425.472q0-91.136-67.584-167.424t-158.72-76.288q-92.16 0-157.184 62.976t-65.024 154.112q0 103.424 64 183.808t165.376 80.384 160.256-67.072 58.88-170.496zM393.216 387.584q0 50.176-13.312 102.4t-48.64 96.256-86.528 44.032q-31.744 0-55.808-18.944t-36.864-49.152-18.944-60.928-6.144-59.392q0-47.104 14.336-96.768t49.664-90.112 84.48-40.448q37.888 0 66.048 30.208t39.936 68.096 11.776 74.752z" horiz-adv-x="517" />
<glyph unicode="&#x3c0;" d="M478.208 332.288h15.36q0-54.272-31.744-102.4t-82.944-48.128q-41.984 0-68.096 36.352t-26.112 88.576q0 96.256 16.384 260.096h-95.232q-1.024-11.264-1.024-46.080t-1.536-66.56-4.096-73.728-9.216-75.264-16.896-63.488-27.136-47.104-39.424-16.896q-33.792 0-51.2 18.432t-17.408 47.104q0 16.384 23.552 23.552 20.48 6.144 32.256 15.872t26.624 38.4 24.576 89.6 13.824 156.16q-49.152 0-78.848-11.264t-54.272-47.104h-16.384q27.648 76.8 69.12 110.592t119.296 33.792h292.864v-86.016h-121.856q-10.24-71.68-10.24-151.552 0-72.704 6.144-98.304 12.288-50.176 50.176-50.176 48.128 0 63.488 65.536z" horiz-adv-x="513" />
<glyph unicode="&#x3c1;" d="M72.704 56.832v290.816q0 315.392 192.512 315.392 90.112 0 151.040-61.952t60.928-156.16q0-111.616-59.904-187.392t-151.040-75.776q-33.792 0-57.344 8.192t-50.176 32.768v-164.864q0-55.296-16.384-88.064h-86.016q16.384 34.816 16.384 87.040zM158.72 471.552v-189.44q0-22.528 35.328-45.056t71.168-22.528q55.296 0 89.6 54.784t34.304 139.776q0 104.448-38.912 164.864t-97.28 60.416q-45.056 0-69.632-44.032t-24.576-118.784z" horiz-adv-x="508" />
<glyph unicode="&#x3c2;" d="M442.368 552.448q0-19.456-12.288-35.328t-36.864-15.872q-13.312 0-28.16 11.264t-27.648 24.576-37.888 24.576-56.832 11.264q-61.44 0-110.080-42.496t-48.64-122.368q0-60.416 28.16-94.72t98.816-39.424h7.168q7.168 0 21.504 1.024t23.552 1.024q78.848 0 116.224-35.328t37.376-110.080q0-65.536-48.128-113.664t-98.304-48.128q-31.744 0-52.736 14.848t-20.992 42.496q0 18.432 11.264 30.208t31.744 11.776q10.24 0 28.672-14.848t33.792-14.848q32.768 0 57.856 23.552t25.088 59.392q0 32.768-25.6 51.2t-66.56 18.432q-3.072 0-41.984-4.608t-56.32-4.608q-73.728 0-116.224 37.888t-42.496 142.336q0 122.88 80.896 211.968t173.056 89.088q73.728 0 113.152-33.28t39.424-77.312z" horiz-adv-x="452" />
<glyph unicode="&#x3c3;" d="M530.432 566.784h-180.224q15.36-22.528 39.936-43.52t42.496-33.792 31.744-39.424 13.824-65.536q0-77.824-68.608-140.288t-164.864-62.464q-87.040 0-151.040 69.632t-64 160.768q0 117.76 61.44 179.2t153.6 61.44h285.696v-86.016zM386.048 367.104q0 62.464-31.744 121.856t-74.752 77.824q-25.6 0-50.176-5.632t-50.176-18.944-41.472-41.472-15.872-69.12q0-87.040 45.568-154.112t99.84-67.072q57.344 0 88.064 46.592t30.72 110.080z" horiz-adv-x="561" />
<glyph unicode="&#x3c4;" d="M452.608 566.784h-174.080q-23.552-126.976-23.552-188.416 0-111.616 54.272-111.616 25.6 0 44.544 18.944t26.112 52.736h15.36q0-63.488-31.232-110.080t-80.384-46.592q-57.344 0-81.408 44.544t-24.064 111.104q0 92.16 40.96 229.376h-83.968q-40.96 0-71.68-25.088t-45.056-67.072h-15.36q7.168 38.912 25.088 77.312t54.784 69.632 82.944 31.232h286.72v-86.016z" horiz-adv-x="488" />
<glyph unicode="&#x3c5;" d="M261.12 663.040h27.648q91.136 0 154.112-62.976t62.976-177.664q0-100.352-63.488-170.496t-157.696-70.144q-103.424 0-143.872 57.344t-40.448 155.648v122.88q0 71.68-20.48 71.68-25.6 0-49.152-50.176l-14.336 6.144q53.248 112.64 105.472 112.64 64.512 0 64.512-71.68v-216.064q0-34.816 7.68-68.096t32.768-62.464 64-29.184q62.464 0 92.672 55.296t30.208 140.288q0 109.568-51.2 177.152-43.008 55.296-101.376 59.392v20.48z" horiz-adv-x="537" />
<glyph unicode="&#x3c6;" d="M275.456 210.432v138.24q0 61.44 2.56 101.376t14.336 89.088 34.304 77.824q35.84 46.080 97.28 46.080 71.68 0 127.488-69.12t55.808-174.592q0-101.376-64-169.472t-181.76-68.096v-211.968h-86.016v211.968l-24.576 1.024q-102.4 4.096-161.792 73.216t-59.392 170.496q0 97.28 59.392 166.912t158.72 69.632q15.36 0 27.648-3.072v-15.36q-72.704-5.12-113.152-48.64t-40.448-124.416q0-135.168 54.272-209.92 36.864-51.2 99.328-51.2zM361.472 210.432h30.72q62.464 0 92.672 54.272t30.208 138.24q0 82.944-29.184 157.184t-73.216 74.24q-12.288 0-21.504-6.144t-14.848-20.48-8.704-27.136-4.096-37.888-1.536-40.448-0.512-46.080v-245.76z" horiz-adv-x="638" />
<glyph unicode="&#x3c7;" d="M497.664 652.8l-215.040-376.832 17.408-81.92q18.432-84.992 36.352-120.32t47.616-35.328q44.032 0 52.224 81.92h15.36q0-30.72-6.144-62.976t-24.576-61.44-47.104-29.184q-69.632 0-95.232 154.624l-21.504 123.904-145.408-269.312h-100.352l215.040 375.808-19.456 83.968q-35.84 155.648-92.16 155.648-13.312 0-26.624-19.456t-18.432-59.392h-15.36q0 74.752 16.896 112.64t57.856 37.888q43.008 0 66.56-62.976t56.32-218.624l145.408 271.36h100.352z" horiz-adv-x="512" />
<glyph unicode="&#x3c8;" d="M700.416 659.968v-15.36q-87.040-11.264-87.040-218.112 0-244.736-209.92-244.736v-211.968h-86.016v211.968q-117.76 0-163.84 58.88t-46.080 185.856q0 205.824-87.040 217.088v15.36q28.672 4.096 53.248 4.096 46.080 0 75.776-30.208t39.936-70.656 10.24-88.576q0-263.168 117.76-263.168v442.368h86.016v-442.368q117.76 0 117.76 259.072 0 35.84 5.632 67.072t18.432 61.44 38.912 47.616 62.976 17.408q38.912 0 53.248-3.072z" horiz-adv-x="711" />
<glyph unicode="&#x3c9;" d="M369.664 647.68v15.36q108.544 0 174.080-63.488t65.536-191.488q0-111.616-49.152-168.96t-113.664-57.344q-90.112 0-126.976 98.304-43.008-98.304-129.024-98.304-60.416 0-111.616 57.344-49.152 56.32-49.152 166.912 0 128 66.56 192.512t173.056 64.512v-15.36q-65.536 0-106.496-61.44t-40.96-171.008q0-204.8 82.944-204.8 67.584 0 87.040 131.072-18.432 59.392-18.432 107.52 0 100.352 46.080 100.352 19.456 0 32.768-24.576t13.312-73.728q0-45.056-18.432-109.568 6.144-59.392 30.72-95.232t53.248-35.84q27.648 0 46.080 15.872t26.624 47.104 10.752 60.416 2.56 71.168q0 117.76-37.888 180.224t-109.568 62.464z" horiz-adv-x="640" />
<glyph unicode="&#x3d0;" d="M420.864 817.664q0-45.056-33.28-74.24t-73.728-38.912-84.48-9.728q-33.792 0-67.584 3.072-83.968-131.072-87.040-253.952 37.888 64.512 82.944 103.424t106.496 38.912q66.56 0 104.96-59.392t38.4-130.048q0-82.944-49.664-148.992t-130.56-66.048q-48.128 0-83.968 25.6t-53.76 67.072-26.112 84.48-8.192 88.064q0 292.864 151.552 411.648 57.344 43.008 102.4 43.008 111.616 0 111.616-83.968zM168.96 711.168h35.84q49.152 0 89.088 19.456 24.576 11.264 56.832 52.224t32.256 64.512q0 13.312-10.752 24.064t-25.088 10.752q-86.016 0-178.176-171.008zM365.568 470.528q0 31.744-20.48 56.32t-51.2 24.576q-36.864 0-79.36-48.128t-69.632-106.496-27.136-94.208q0-34.816 17.408-60.928t50.176-26.112q37.888 0 81.92 48.64t71.168 109.056 27.136 97.28z" horiz-adv-x="461" />
<glyph unicode="&#x3d1;" d="M557.056 488.96v-15.36q-34.816-7.168-86.016-7.168-1.024-53.248-10.752-99.84t-30.72-90.112-60.928-69.12-95.232-25.6q-101.376 0-142.848 53.248t-41.472 147.456v22.528q0 56.32-20.48 56.32-13.312 0-23.040-11.776t-30.208-51.712l-15.36 9.216q21.504 54.272 51.2 83.456t60.416 29.184q36.864 0 50.176-20.48t13.312-81.92v-52.224q0-23.552 4.608-47.616t15.36-49.664 32.768-41.472 51.712-15.872q101.376 0 101.376 218.112 0 30.72-1.024 45.056-120.832 20.48-203.264 90.112t-82.432 168.96q0 79.872 46.592 119.296t105.984 39.424q61.44 0 99.328-32.768t66.56-91.136q55.296-111.616 59.392-269.312 20.48-4.096 84.992-9.216zM377.856 521.728l-7.168 78.848q-7.168 76.8-20.48 129.536t-31.232 78.336-35.328 35.328-38.912 9.728q-29.696 0-51.2-24.064t-21.504-65.024q0-25.6 8.192-53.76t28.16-64.512 64-69.632 105.472-54.784z" horiz-adv-x="567" />
<glyph unicode="&#x3d5;" d="M361.472 891.392v-228.352q71.68 0 110.592-16.384 65.536-26.624 100.352-85.504t34.816-132.608q0-46.080-13.312-88.064t-40.448-78.848-76.8-58.368-115.2-21.504v-211.968h-86.016v211.968h-24.576q-100.352 0-160.768 73.216t-60.416 170.496q0 98.304 60.416 167.936t167.936 69.632h17.408v228.352h86.016zM360.448 210.432h31.744q61.44 0 92.16 53.76t30.72 136.704q0 97.28-40.448 165.376t-114.176 68.096v-423.936zM276.48 210.432v423.936h-30.72q-59.392 0-91.648-43.008t-32.256-118.784q0-133.12 55.296-210.944 35.84-51.2 99.328-51.2z" horiz-adv-x="638" />
<glyph unicode="&#x3d6;" d="M743.424 566.784h-88.064q47.104-56.32 47.104-165.888 0-105.472-48.128-162.304t-119.808-56.832q-38.912 0-72.192 24.576t-49.664 73.728q-20.48-51.2-52.736-74.752t-85.504-23.552q-61.44 0-106.496 57.856t-45.056 163.328q0 40.96 13.312 86.528t34.816 77.312h-45.056q-35.84 0-58.88-24.064t-45.568-70.144h-15.36q9.216 65.536 49.152 122.88t102.4 57.344h585.728v-86.016zM571.392 566.784h-315.392q-40.96-69.632-40.96-171.008 0-185.344 77.824-185.344 71.68 0 92.16 132.096-18.432 51.2-18.432 86.016t11.264 61.952 35.84 27.136q22.528 0 33.792-28.16t11.264-61.952q0-36.864-18.432-84.992 7.168-60.416 32.256-96.256t55.808-35.84q81.92 0 81.92 192.512 0 43.008-10.752 90.624t-28.16 73.216z" horiz-adv-x="780" />
<glyph unicode="&#x3f0;" d="M527.36 652.8l-141.312-172.032q-18.432-48.128-18.432-114.688 0-106.496 59.392-106.496 7.168 0 18.432 11.264t30.72 11.264q16.384 0 27.648-10.752t11.264-26.112q0-32.768-21.504-48.128t-55.296-15.36q-51.2 0-78.336 44.544t-27.136 99.84 16.384 112.64h-2.048l-198.656-246.784h-105.472l143.36 174.080q18.432 44.032 18.432 130.048 0 38.912-15.36 64t-44.032 25.088q-6.144 0-18.944-12.288t-33.28-12.288q-14.336 0-25.6 11.264t-11.264 25.6q0 31.744 22.528 48.64t51.2 16.896q50.176 0 79.872-40.448t29.696-102.912q0-41.984-14.336-113.664h2.048l194.56 246.784h105.472z" horiz-adv-x="564" />
<glyph unicode="&#x3f1;" d="M436.224-28.16h-16.384q-4.096 26.624-32.768 38.912t-71.68 17.92-89.6 15.872-93.184 43.52-74.24 88.576q-28.672 58.368-28.672 197.632 0 37.888 6.656 75.264t23.552 76.8 43.008 69.12 68.096 48.64 94.208 18.944q99.328 0 157.696-67.072t58.368-178.688q0-96.256-59.904-165.888t-154.112-69.632q-131.072 0-175.104 92.16l-2.048-1.024q18.432-62.464 62.464-97.792t92.16-46.592 94.208-19.968 75.776-30.208 29.696-64.512q0-17.408-8.192-41.984zM389.12 414.208q0 87.040-44.544 153.6t-98.816 66.56q-57.344 0-90.624-40.96t-33.28-121.856q0-64.512 14.848-121.856t50.176-98.304 85.504-40.96q33.792 0 57.856 18.944t36.352 51.2 17.408 65.024 5.12 68.608z" horiz-adv-x="512" />
<glyph unicode="&#x3f5;" d="M401.408 307.712l15.36-8.192q-60.416-117.76-187.392-117.76-91.136 0-147.456 69.632t-56.32 162.816q0 100.352 60.416 174.592t156.672 74.24q31.744 0 60.416-10.24t39.936-10.24q15.36 0 17.408 20.48h16.384l14.336-138.24h-16.384q-10.24 25.6-16.384 38.4t-20.992 32.768-37.888 28.672-54.784 8.704q-52.224 0-89.6-58.368t-37.376-121.856h199.68v-32.768h-199.68q0-80.896 36.352-138.752t97.792-57.856q87.040 0 149.504 83.968z" horiz-adv-x="450" />
<glyph unicode="&#x2040;" d="M743.424 727.552l-14.336-11.264q-120.832 134.144-318.464 134.144-203.776 0-321.536-134.144l-15.36 9.216q22.528 52.224 62.976 91.136t88.064 60.416 93.184 31.232 90.624 9.728q105.472 0 197.632-45.568t137.216-144.896z" horiz-adv-x="817" />
<glyph unicode="&#x2044;" d="M338.944 884.224l-460.8-706.56h-50.176l463.872 706.56h47.104z" horiz-adv-x="171" />
<glyph unicode="&#x2102;" d="M647.168 354.816l31.744-31.744q-120.832-145.408-295.936-145.408-149.504 0-243.2 101.888t-93.696 252.416q0 153.6 92.672 252.928t245.248 99.328q91.136 0 161.792-35.84t131.072-109.568l-31.744-31.744q-47.104 48.128-76.8 72.704t-75.776 41.984-104.448 17.408q-97.28 0-169.984-50.176v-515.072q26.624-21.504 78.336-36.352t90.624-14.848q83.968 0 137.728 30.72t122.368 101.376zM173.056 312.832v450.56q-81.92-118.784-81.92-231.424 0-100.352 60.416-191.488 12.288-20.48 21.504-27.648z" horiz-adv-x="722" />
<glyph unicode="&#x2115;" d="M643.072 192h-137.216l-387.072 516.096h-2.048v-516.096h-45.056v677.888h138.24l32.768-46.080 354.304-472.064h1.024v518.144h45.056v-677.888zM598.016 237.056v39.936l-411.648 547.84h-69.632v-40.96l410.624-546.816h70.656z" horiz-adv-x="715" />
<glyph unicode="&#x211a;" d="M719.872 179.712l6.144-45.056q-64.512-9.216-84.992-9.216-45.056 0-75.264 18.432t-59.904 52.224q-52.224-18.432-115.712-18.432-149.504 0-246.784 102.4t-97.28 251.904q0 157.696 95.232 254.976t252.928 97.28q152.576 0 245.248-99.328t92.672-252.928q0-104.448-47.104-187.904t-130.048-127.488q46.080-46.080 86.016-46.080 21.504 0 78.848 9.216zM605.184 753.152v-439.296q81.92 81.92 81.92 218.112t-81.92 221.184zM560.128 272.896v517.12q-60.416 49.152-169.984 49.152-40.96 0-92.672-13.312t-79.36-35.84v-517.12q19.456-13.312 45.056-23.552 55.296 67.584 130.048 67.584 65.536 0 129.024-65.536 20.48 8.192 37.888 21.504zM173.056 313.856v439.296q-81.92-84.992-81.92-221.184 0-131.072 81.92-218.112zM471.040 233.984q-37.888 37.888-80.896 37.888-41.984 0-77.824-37.888 43.008-11.264 77.824-11.264 37.888 0 80.896 11.264z" horiz-adv-x="783" />
<glyph unicode="&#x211d;" d="M729.088 192h-211.968l-199.68 277.504h-75.776v-277.504h-169.984v677.888h327.68q107.52 0 175.616-48.64t68.096-152.064q0-68.608-34.816-117.248t-99.328-68.096zM502.784 810.496v-289.792q44.032 18.432 69.632 58.368t25.6 88.064q0 100.352-95.232 143.36zM457.728 519.68v296.96q-4.096 0-23.040 4.096t-28.16 4.096h-164.864v-310.272h159.744q10.24 0 56.32 5.12zM641.024 237.056l-179.2 236.544q-23.552-4.096-90.112-4.096l168.96-232.448h100.352zM196.608 237.056v587.776h-79.872v-587.776h79.872z" horiz-adv-x="765" />
<glyph unicode="&#x2124;" d="M693.248 824.832l-435.2-587.776h425.984v-45.056h-632.832v45.056l429.056 587.776h-377.856v45.056h590.848v-45.056zM631.808 824.832h-96.256l-430.080-587.776h99.328z" horiz-adv-x="744" />
<glyph unicode="&#x2190;" d="M877.568 417.28h-613.376q-8.192 0-17.408-7.68t-9.216-14.848q0-11.264 14.336-25.6 52.224-50.176 83.968-98.304l-20.48-19.456q-126.976 146.432-242.688 194.56v10.24q117.76 50.176 243.712 195.584l20.48-19.456q-28.672-40.96-83.968-98.304-14.336-14.336-14.336-28.672 0-20.48 26.624-20.48h612.352v-67.584z" horiz-adv-x="948" />
<glyph unicode="&#x2191;" d="M461.824 626.176l-19.456-20.48q-40.96 28.672-98.304 83.968-14.336 14.336-28.672 14.336-20.48 0-20.48-26.624v-645.12h-67.584v646.144q0 8.192-7.68 17.408t-14.848 9.216q-11.264 0-25.6-14.336-50.176-52.224-98.304-83.968l-19.456 20.48q146.432 126.976 194.56 242.688h10.24q50.176-117.76 195.584-243.712z" horiz-adv-x="523" />
<glyph unicode="&#x2192;" d="M876.544 456.192v-10.24q-117.76-50.176-243.712-195.584l-20.48 19.456q28.672 40.96 83.968 98.304 14.336 14.336 14.336 28.672 0 20.48-26.624 20.48h-612.352v67.584h613.376q8.192 0 17.408 7.68t9.216 14.848q0 11.264-14.336 25.6-52.224 50.176-83.968 98.304l20.48 19.456q126.976-146.432 242.688-194.56z" horiz-adv-x="948" />
<glyph unicode="&#x2193;" d="M442.368 295.424l19.456-20.48q-146.432-126.976-194.56-242.688h-10.24q-50.176 117.76-195.584 243.712l19.456 20.48q40.96-28.672 98.304-83.968 14.336-14.336 28.672-14.336 20.48 0 20.48 26.624v645.12h67.584v-646.144q0-8.192 7.68-17.408t14.848-9.216q11.264 0 25.6 14.336 50.176 52.224 98.304 83.968z" horiz-adv-x="523" />
<glyph unicode="&#x2194;" d="M909.312 456.192v-10.24q-117.76-50.176-243.712-195.584l-20.48 19.456q28.672 40.96 83.968 98.304 14.336 14.336 14.336 28.672 0 20.48-26.624 20.48h-486.4q-8.192 0-17.408-7.68t-9.216-14.848q0-11.264 14.336-25.6 52.224-50.176 83.968-98.304l-20.48-19.456q-126.976 146.432-242.688 194.56v10.24q117.76 50.176 243.712 195.584l20.48-19.456q-28.672-40.96-83.968-98.304-14.336-14.336-14.336-28.672 0-20.48 26.624-20.48h486.4q8.192 0 17.408 7.68t9.216 14.848q0 11.264-14.336 25.6-52.224 50.176-83.968 98.304l20.48 19.456q126.976-146.432 242.688-194.56z" horiz-adv-x="948" />
<glyph unicode="&#x21a9;" d="M613.376 758.272h100.352q63.488 0 113.152-47.104t49.664-123.904q0-79.872-56.32-124.928t-123.904-45.056h-436.224q-22.528 0-22.528-20.48 0-14.336 14.336-28.672 55.296-57.344 83.968-98.304l-20.48-19.456q-125.952 145.408-243.712 195.584v10.24q115.712 48.128 242.688 194.56l20.48-19.456q-31.744-48.128-83.968-98.304-14.336-14.336-14.336-25.6 0-7.168 7.168-14.848t17.408-7.68h431.104q49.152 0 82.944 26.624t33.792 74.752q0 47.104-26.624 75.776t-71.68 28.672h-97.28v67.584z" horiz-adv-x="948" />
<glyph unicode="&#x21c4;" d="M876.544 620.032v-10.24q-121.856-52.224-241.664-184.32l-20.48 19.456q24.576 31.744 77.824 87.040 14.336 14.336 14.336 28.672 0 20.48-26.624 20.48h-598.016v67.584h596.992q9.216 0 18.432 5.632t9.216 16.896-14.336 25.6q-53.248 52.224-77.824 88.064l20.48 19.456q113.664-131.072 241.664-184.32zM867.328 253.44h-596.992q-9.216 0-18.432-5.632t-9.216-16.896 14.336-25.6q53.248-52.224 77.824-88.064l-20.48-19.456q-113.664 131.072-241.664 184.32v10.24q121.856 52.224 241.664 184.32l20.48-19.456q-24.576-31.744-77.824-87.040-14.336-14.336-14.336-28.672 0-20.48 26.624-20.48h598.016v-67.584z" horiz-adv-x="948" />
<glyph unicode="&#x21e7;" d="M656.384 495.104l-10.24-20.48h-158.72v-442.368h-272.384v442.368h-158.72l-10.24 20.48q41.984 41.984 87.040 95.232t69.632 85.504 76.8 103.424 66.56 90.624h10.24q22.528-29.696 68.608-91.648t74.24-99.328 71.68-89.6 85.504-94.208zM555.008 525.824l-129.024 168.96q-45.056 59.392-74.752 59.392-18.432 0-34.304-14.848t-39.424-44.544l-131.072-168.96h119.808v-442.368h169.984v442.368h118.784z" horiz-adv-x="701" />
<glyph unicode="&#x2205;" d="M721.92 788.992l-90.112-103.424q97.28-100.352 97.28-235.52 0-139.264-99.84-239.104t-239.104-99.84q-109.568 0-201.728 67.584l-59.392-67.584h-70.656l89.088 102.4q-96.256 98.304-96.256 236.544 0 139.264 99.84 239.104t239.104 99.84q105.472 0 201.728-67.584l59.392 67.584h70.656zM588.8 636.416l-356.352-407.552q70.656-50.176 157.696-50.176 112.64 0 192 79.872t79.36 192.512q0 104.448-72.704 185.344zM192.512 264.704l354.304 404.48q-23.552 22.528-69.12 37.376t-87.552 14.848q-112.64 0-192-78.848t-79.36-191.488q0-110.592 73.728-186.368z" horiz-adv-x="780" />
<glyph unicode="&#x2208;" d="M640 164.352h-297.984q-120.832 0-200.704 84.48t-79.872 201.216 78.848 201.216 198.656 84.48h301.056v-67.584h-296.96q-76.8 0-137.216-54.784t-73.728-129.536h507.904v-67.584h-508.928q13.312-74.752 73.728-129.536t137.216-54.784h297.984v-67.584z" horiz-adv-x="701" />
<glyph unicode="&#x2209;" d="M640 164.352h-297.984q-48.128 0-94.208 16.384l-74.752-149.504h-63.488l87.040 174.080q-62.464 37.888-98.816 103.424t-36.352 141.312q0 116.736 78.848 201.216t198.656 84.48h121.856l66.56 134.144h63.488l-66.56-134.144h115.712v-67.584h-149.504l-92.16-184.32h241.664v-67.584h-274.432l-87.040-174.080q33.792-10.24 63.488-10.24h297.984v-67.584zM427.008 668.16h-83.968q-76.8 0-137.216-54.784t-73.728-129.536h202.752zM302.080 416.256h-171.008q16.384-93.184 97.28-147.456z" horiz-adv-x="701" />
<glyph unicode="&#x2212;" d="M635.904 417.28h-570.368v67.584h570.368v-67.584z" horiz-adv-x="701" />
<glyph unicode="&#x2213;" d="M652.288 638.464h-603.136v67.584h603.136v-67.584zM652.288 301.568h-268.288v-198.656h-67.584v198.656h-267.264v67.584h267.264v214.016h67.584v-214.016h268.288v-67.584z" horiz-adv-x="701" />
<glyph unicode="&#x2217;" d="M467.968 537.088q0-18.432-22.528-31.744-7.168-4.096-61.44-18.432t-97.28-38.912q36.864-21.504 92.672-36.864t65.024-20.48q21.504-12.288 21.504-32.768 0-16.384-10.752-28.16t-29.184-11.776q-17.408 0-36.864 18.944t-48.128 49.152-61.44 48.64q0-39.936 14.848-97.28t14.848-68.608q0-16.384-12.288-29.696t-26.624-13.312-26.624 13.312-12.288 29.696q0 11.264 14.848 68.608t14.848 97.28q-30.72-17.408-73.216-60.416t-50.688-47.104q-14.336-8.192-27.648-8.192-17.408 0-27.648 9.728t-10.24 23.040q0 26.624 21.504 39.936 10.24 5.12 68.608 22.016t88.064 34.304q-29.696 17.408-89.088 34.304t-71.68 24.064q-20.48 12.288-20.48 30.72 0 16.384 10.752 29.696t26.112 13.312q10.24 0 22.528-6.144 10.24-6.144 55.296-49.664t77.824-60.928q0 39.936-14.848 99.328t-14.848 70.656q0 16.384 12.288 28.672t26.624 12.288 26.624-12.8 12.288-28.16q0-11.264-14.848-70.144t-14.848-98.816q43.008 22.528 82.432 64t46.592 45.568q12.288 6.144 22.528 6.144 15.36 0 26.112-13.312t10.752-29.696z" horiz-adv-x="536" />
<glyph unicode="&#x2218;" d="M317.44 450.048q0-57.344-40.448-97.792t-97.792-40.448q-58.368 0-98.304 40.448t-39.936 99.84q0 57.344 40.448 96.768t99.84 39.424q56.32 0 96.256-40.448t39.936-97.792zM249.856 450.048q0 29.696-20.48 50.176t-48.128 20.48q-31.744 0-52.224-19.968t-20.48-48.64q0-31.744 19.968-52.224t50.688-20.48q29.696 0 50.176 20.48t20.48 50.176z" horiz-adv-x="358" />
<glyph unicode="&#x221a;" d="M986.112 1188.352l-489.472-1261.568h-32.768l-206.848 542.72q-22.528 60.416-63.488 60.416-31.744 0-66.56-31.744l-12.288 20.48 159.744 126.976h19.456l208.896-548.864h4.096l423.936 1091.584h55.296z" horiz-adv-x="950" />
<glyph unicode="&#x221d;" d="M658.432 278.016v-86.016q-70.656 0-120.832 35.84t-101.376 112.64q-73.728-148.48-214.016-148.48-72.704 0-126.464 52.736t-53.76 152.064q0 53.248 14.848 96.256t36.864 68.096 49.664 41.984 50.688 23.040 43.52 6.144q61.44 0 108.032-29.184t115.2-121.344q41.984 75.776 84.48 113.152t113.152 37.376v-86.016q-62.464 0-107.52-30.208t-69.632-73.216v-3.072q51.2-84.992 91.648-123.392t85.504-38.4zM413.696 377.344v3.072q-58.368 96.256-108.032 143.872t-99.84 47.616q-43.008 0-72.704-36.352t-29.696-85.504q0-69.632 38.912-120.832t103.424-51.2q31.744 0 59.392 9.216t49.152 27.136 33.28 30.72 26.112 32.256z" horiz-adv-x="701" />
<glyph unicode="&#x221e;" d="M874.496 419.328q0-82.944-56.32-155.136t-146.432-72.192q-59.392 0-107.008 36.352t-98.816 112.128q-73.728-148.48-214.016-148.48-72.704 0-126.464 52.736t-53.76 152.064q0 53.248 14.848 96.256t36.864 68.096 49.664 41.984 50.688 23.040 43.52 6.144q61.44 0 108.032-29.184t115.2-121.344q41.984 75.776 84.48 113.152t113.152 37.376q74.752 0 130.56-57.856t55.808-155.136zM510.976 442.88v-3.072q59.392-97.28 104.448-142.336t95.232-45.056q43.008 0 72.704 36.352t29.696 85.504q0 72.704-38.4 122.368t-103.936 49.664q-31.744 0-57.856-8.704t-46.592-28.16-29.696-30.72-25.6-35.84zM443.392 377.344v3.072q-58.368 96.256-108.032 143.872t-99.84 47.616q-43.008 0-72.704-36.352t-29.696-85.504q0-69.632 38.912-120.832t103.424-51.2q31.744 0 59.392 9.216t49.152 27.136 33.28 30.72 26.112 32.256z" horiz-adv-x="948" />
<glyph unicode="&#x221f;" d="M649.216 192h-598.016v598.016h67.584v-530.432h530.432v-67.584z" horiz-adv-x="701" />
<glyph unicode="&#x2220;" d="M658.432 192h-634.88l559.104 560.128 51.2-43.008-447.488-449.536h472.064v-67.584z" horiz-adv-x="701" />
<glyph unicode="&#x2221;" d="M657.408 192h-99.328q0-44.032-5.12-73.728l-66.56 10.24q4.096 27.648 4.096 63.488h-467.968l330.752 330.752q-23.552 23.552-49.152 43.008l40.96 54.272q28.672-21.504 56.32-49.152l180.224 181.248 52.224-43.008-188.416-189.44q90.112-115.712 108.544-260.096h103.424v-67.584zM185.344 259.584h300.032q-16.384 116.736-88.064 211.968z" horiz-adv-x="701" />
<glyph unicode="&#x2222;" d="M668.672 273.92l-25.6-63.488-90.112 37.888q-11.264-31.744-32.768-67.584l-58.368 34.816q13.312 21.504 28.672 58.368l-433.152 177.152 431.104 181.248q-11.264 26.624-27.648 56.32l58.368 34.816q19.456-34.816 31.744-65.536l92.16 37.888 25.6-61.44-95.232-40.96q19.456-68.608 19.456-142.336 0-70.656-18.432-138.24zM233.472 451.072l276.48-112.64q15.36 55.296 15.36 112.64 0 58.368-15.36 116.736z" horiz-adv-x="701" />
<glyph unicode="&#x2223;" d="M169.984-1.536h-67.584v900.096h67.584v-900.096z" horiz-adv-x="272" />
<glyph unicode="&#x2225;" d="M403.456-1.536h-67.584v900.096h67.584v-900.096zM199.68-1.536h-67.584v900.096h67.584v-900.096z" horiz-adv-x="536" />
<glyph unicode="&#x2226;" d="M600.064 562.688l-152.576-77.824v-486.4h-67.584v451.584l-136.192-68.608v-382.976h-67.584v348.16l-128-65.536-24.576 54.272 152.576 77.824v485.376h67.584v-450.56l136.192 68.608v381.952h67.584v-347.136l128 64.512z" horiz-adv-x="624" />
<glyph unicode="&#x2229;" d="M585.728 160.256h-67.584v303.104q0 87.040-59.392 148.48t-141.312 61.44q-83.968 0-142.336-61.44t-58.368-149.504v-302.080h-67.584v306.176q0 120.832 76.288 197.632t192 76.8q114.688 0 191.488-77.824t76.8-199.68v-303.104z" horiz-adv-x="635" />
<glyph unicode="&#x222a;" d="M585.728 740.864v-303.104q0-121.856-76.8-199.68t-191.488-77.824q-115.712 0-192 76.8t-76.288 197.632v306.176h67.584v-302.080q0-88.064 58.368-149.504t142.336-61.44q81.92 0 141.312 61.44t59.392 148.48v303.104h67.584z" horiz-adv-x="635" />
<glyph unicode="&#x2234;" d="M382.976 660.992q0-26.624-17.92-46.080t-46.592-19.456q-29.696 0-47.616 17.92t-17.92 47.616q0 27.648 19.968 46.080t45.568 18.432 45.056-18.432 19.456-46.080zM595.968 241.152q0-26.624-17.92-46.080t-46.592-19.456q-29.696 0-47.616 17.92t-17.92 47.616q0 27.648 19.968 46.080t45.568 18.432 45.056-18.432 19.456-46.080zM168.96 241.152q0-26.624-17.92-46.080t-46.592-19.456q-29.696 0-47.616 17.92t-17.92 47.616q0 27.648 19.968 46.080t45.568 18.432 45.056-18.432 19.456-46.080z" horiz-adv-x="635" />
<glyph unicode="&#x2235;" d="M595.968 659.968q0-27.648-19.968-46.080t-45.568-18.432-45.056 18.432-19.456 46.080q0 26.624 17.92 46.080t46.592 19.456q29.696 0 47.616-17.92t17.92-47.616zM168.96 659.968q0-27.648-19.968-46.080t-45.568-18.432-45.056 18.432-19.456 46.080q0 26.624 17.92 46.080t46.592 19.456q29.696 0 47.616-17.92t17.92-47.616zM381.952 240.128q0-27.648-19.968-46.080t-45.568-18.432-45.056 18.432-19.456 46.080q0 26.624 17.92 46.080t46.592 19.456q29.696 0 47.616-17.92t17.92-47.616z" horiz-adv-x="635" />
<glyph unicode="&#x223c;" d="M618.496 562.688h33.792q-5.12-75.776-49.152-142.336t-112.64-66.56q-41.984 0-96.768 32.768t-104.96 65.536-79.872 32.768q-50.176 0-80.896-39.936t-45.056-101.376h-33.792q4.096 82.944 49.664 145.92t117.248 62.976q41.984 0 96.768-32.768t104.96-65.536 80.896-32.768q90.112 0 119.808 141.312z" horiz-adv-x="701" />
<glyph unicode="&#x2241;" d="M618.496 562.688h33.792q-3.072-46.080-21.504-92.16t-55.808-81.408-84.48-35.328q-53.248 0-135.168 55.296l-73.728-126.976h-61.44l91.136 156.672q-70.656 46.080-102.4 46.080-51.2 0-81.92-41.472t-44.032-99.84h-33.792q4.096 78.848 48.64 143.872t118.272 65.024q52.224 0 130.048-53.248l73.728 126.976h61.44l-90.112-155.648q72.704-49.152 107.52-49.152 90.112 0 119.808 141.312z" horiz-adv-x="701" />
<glyph unicode="&#x2243;" d="M618.496 647.68h33.792q-5.12-75.776-49.152-142.336t-112.64-66.56q-41.984 0-96.768 32.768t-104.96 65.536-79.872 32.768q-50.176 0-80.896-39.936t-45.056-101.376h-33.792q4.096 82.944 49.664 145.92t117.248 62.976q41.984 0 96.768-32.768t104.96-65.536 80.896-32.768q90.112 0 119.808 141.312zM652.288 248.32h-603.136v67.584h603.136v-67.584z" horiz-adv-x="701" />
<glyph unicode="&#x2244;" d="M652.288 248.32h-364.544l-39.936-92.16h-55.296l39.936 92.16h-183.296v67.584h212.992l79.872 183.296q-7.168 5.12-26.112 18.944t-27.136 19.456-24.064 15.872-25.088 14.848-20.48 8.192-20.48 3.584q-49.152 0-81.92-44.544t-47.104-107.008h-20.48q4.096 83.968 50.176 151.552t116.736 67.584q52.224 0 156.672-77.824l66.56 153.6h55.296l-79.872-184.32q60.416-43.008 94.208-43.008 87.040 0 122.88 151.552h20.48q-5.12-76.8-49.152-147.968t-112.64-71.168q-44.032 0-106.496 40.96l-66.56-153.6h334.848v-67.584z" horiz-adv-x="701" />
<glyph unicode="&#x2245;" d="M631.808 736.768h20.48q-5.12-76.8-49.152-147.968t-112.64-71.168q-32.768 0-76.288 23.552t-78.848 52.224-73.728 52.224-62.976 23.552q-49.152 0-81.92-44.544t-47.104-107.008h-20.48q4.096 83.968 50.176 151.552t116.736 67.584q41.984 0 99.328-37.888t110.080-75.776 83.456-37.888q87.040 0 122.88 151.552zM652.288 369.152h-603.136v67.584h603.136v-67.584zM652.288 164.352h-603.136v67.584h603.136v-67.584z" horiz-adv-x="701" />
<glyph unicode="&#x2247;" d="M652.288 164.352h-370.688l-73.728-179.2h-54.272l73.728 179.2h-178.176v67.584h205.824l56.32 137.216h-262.144v67.584h289.792l51.2 124.928q-20.48 12.288-61.952 40.448t-69.12 42.496-50.176 14.336q-50.176 0-80.896-39.936t-45.056-101.376h-33.792q4.096 82.944 49.664 145.92t117.248 62.976q23.552 0 52.224-11.264t48.128-22.528 53.76-34.816 46.592-30.72l94.208 227.328h54.272l-103.424-250.88q21.504-8.192 36.864-8.192 90.112 0 119.808 141.312h33.792q-5.12-75.776-49.152-142.336t-112.64-66.56q-26.624 0-55.296 11.264l-41.984-102.4h259.072v-67.584h-286.72l-56.32-137.216h343.040v-67.584z" horiz-adv-x="701" />
<glyph unicode="&#x2248;" d="M618.496 678.4h33.792q-5.12-75.776-49.152-142.336t-112.64-66.56q-41.984 0-96.768 32.768t-104.96 65.536-79.872 32.768q-50.176 0-80.896-39.936t-45.056-101.376h-33.792q4.096 82.944 49.664 145.92t117.248 62.976q41.984 0 96.768-32.768t104.96-65.536 80.896-32.768q90.112 0 119.808 141.312zM618.496 436.736h33.792q-5.12-75.776-49.152-142.336t-112.64-66.56q-41.984 0-96.768 32.768t-104.96 65.536-79.872 32.768q-50.176 0-80.896-39.936t-45.056-101.376h-33.792q4.096 82.944 49.664 145.92t117.248 62.976q41.984 0 96.768-32.768t104.96-65.536 80.896-32.768q90.112 0 119.808 141.312z" horiz-adv-x="701" />
<glyph unicode="&#x2249;" d="M631.808 436.736h20.48q-5.12-76.8-49.152-147.968t-112.64-71.168q-25.6 0-59.904 15.872t-54.784 30.208-60.416 44.032l-71.68-165.888h-55.296l84.992 195.584q-48.128 31.744-74.752 31.744-49.152 0-81.92-44.544t-47.104-107.008h-20.48q4.096 83.968 50.176 151.552t116.736 67.584q36.864 0 87.040-29.696l50.176 114.688q-9.216 6.144-33.792 24.576t-35.328 25.6-29.184 18.432-31.744 15.872-24.576 4.608q-49.152 0-81.92-44.544t-47.104-107.008h-20.48q4.096 83.968 50.176 151.552t116.736 67.584q24.576 0 57.344-14.848t52.224-28.672 58.368-42.496l71.68 161.792h55.296l-83.968-192.512q50.176-34.816 81.92-34.816 87.040 0 122.88 151.552h20.48q-5.12-76.8-49.152-147.968t-112.64-71.168q-40.96 0-94.208 32.768l-49.152-113.664q11.264-8.192 35.328-25.6t36.352-26.112 30.72-19.968 32.768-16.384 26.624-5.12q87.040 0 122.88 151.552z" horiz-adv-x="701" />
<glyph unicode="&#x2250;" d="M414.72 753.152q0-26.624-17.92-46.080t-46.592-19.456q-29.696 0-47.616 17.92t-17.92 47.616q0 27.648 19.968 46.080t45.568 18.432 45.056-18.432 19.456-46.080zM652.288 519.68h-603.136v67.584h603.136v-67.584zM652.288 314.88h-603.136v67.584h603.136v-67.584z" horiz-adv-x="701" />
<glyph unicode="&#x2260;" d="M652.288 314.88h-333.824l-122.88-282.624h-55.296l122.88 282.624h-214.016v67.584h243.712l60.416 137.216h-304.128v67.584h333.824l122.88 282.624h55.296l-123.904-282.624h215.040v-67.584h-243.712l-60.416-137.216h304.128v-67.584z" horiz-adv-x="701" />
<glyph unicode="&#x2261;" d="M652.288 613.888h-603.136v67.584h603.136v-67.584zM652.288 417.28h-603.136v67.584h603.136v-67.584zM652.288 220.672h-603.136v67.584h603.136v-67.584z" horiz-adv-x="701" />
<glyph unicode="&#x2262;" d="M652.288 220.672h-374.784l-81.92-188.416h-55.296l81.92 188.416h-173.056v67.584h202.752l56.32 129.024h-259.072v67.584h288.768l56.32 129.024h-345.088v67.584h374.784l81.92 188.416h55.296l-82.944-188.416h174.080v-67.584h-202.752l-56.32-129.024h259.072v-67.584h-288.768l-56.32-129.024h345.088v-67.584z" horiz-adv-x="701" />
<glyph unicode="&#x2264;" d="M644.096 244.224l-578.56 279.552v10.24l578.56 281.6v-66.56l-442.368-220.16 442.368-220.16v-64.512zM644.096 86.528h-578.56v67.584h578.56v-67.584z" horiz-adv-x="701" />
<glyph unicode="&#x2265;" d="M644.096 523.776l-578.56-279.552v64.512l442.368 220.16-442.368 220.16v66.56l578.56-281.6v-10.24zM644.096 86.528h-578.56v67.584h578.56v-67.584z" horiz-adv-x="701" />
<glyph unicode="&#x226a;" d="M929.792 165.376l-578.56 280.576v10.24l578.56 280.576v-66.56l-442.368-219.136 442.368-221.184v-64.512zM604.16 165.376l-578.56 280.576v10.24l578.56 280.576v-66.56l-442.368-219.136 442.368-221.184v-64.512z" horiz-adv-x="955" />
<glyph unicode="&#x226b;" d="M929.792 446.976l-578.56-281.6v64.512l442.368 221.184-442.368 219.136v66.56l578.56-279.552v-10.24zM604.16 446.976l-578.56-281.6v64.512l442.368 221.184-442.368 219.136v66.56l578.56-279.552v-10.24z" horiz-adv-x="955" />
<glyph unicode="&#x227a;" d="M635.904 244.224v-78.848q-86.016 114.688-240.64 176.64t-329.728 75.264v67.584q175.104 13.312 329.728 75.264t240.64 176.64v-78.848q-35.84-61.44-136.704-119.296t-205.312-87.552q104.448-29.696 205.312-87.552t136.704-119.296z" horiz-adv-x="701" />
<glyph unicode="&#x227b;" d="M635.904 484.864v-67.584q-175.104-13.312-329.728-75.264t-240.64-176.64v78.848q35.84 61.44 136.704 119.296t205.312 87.552q-104.448 29.696-205.312 87.552t-136.704 119.296v78.848q86.016-114.688 240.64-176.64t329.728-75.264z" horiz-adv-x="701" />
<glyph unicode="&#x2282;" d="M635.904 166.4h-296.96q-118.784 0-196.096 84.48t-77.312 201.216 78.336 200.192 198.144 83.456h293.888v-67.584h-293.888q-86.016 0-147.456-66.048t-61.44-150.016 61.952-151.040 147.968-67.072h292.864v-67.584z" horiz-adv-x="701" />
<glyph unicode="&#x2283;" d="M65.536 735.744h293.888q119.808 0 198.144-83.456t78.336-200.192-77.312-201.216-196.096-84.48h-296.96v67.584h292.864q86.016 0 147.968 67.072t61.952 151.040-61.44 150.016-147.456 66.048h-293.888v67.584z" horiz-adv-x="701" />
<glyph unicode="&#x2284;" d="M637.952 166.4h-297.984q-35.84 0-74.752 10.24l-62.464-144.384h-55.296l70.656 161.792q-69.632 34.816-110.592 104.96t-40.96 153.088q0 116.736 78.336 200.192t198.144 83.456h111.616l58.368 134.144h55.296l-58.368-134.144h128v-67.584h-157.696l-186.368-427.008q21.504-7.168 50.176-7.168h293.888v-67.584zM424.96 668.16h-81.92q-86.016 0-147.456-66.048t-61.44-150.016q0-57.344 30.72-109.568t81.92-81.92z" horiz-adv-x="701" />
<glyph unicode="&#x2285;" d="M553.984 869.888l-70.656-161.792q71.68-34.816 113.152-104.448t41.472-151.552q0-116.736-77.312-201.216t-196.096-84.48h-117.76l-58.368-134.144h-55.296l58.368 134.144h-124.928v67.584h154.624l186.368 428.032q-21.504 6.144-46.080 6.144h-294.912v67.584h294.912q35.84 0 73.728-10.24l63.488 144.384h55.296zM276.48 233.984h83.968q86.016 0 147.968 67.072t61.952 151.040q0 58.368-31.744 110.592t-83.968 80.896z" horiz-adv-x="701" />
<glyph unicode="&#x2286;" d="M635.904 244.224h-296.96q-118.784 0-196.096 84.48t-77.312 201.216 78.336 200.192 198.144 83.456h293.888v-67.584h-293.888q-86.016 0-147.456-66.048t-61.44-150.016 61.952-151.040 147.968-67.072h292.864v-67.584zM635.904 86.528h-561.152v67.584h561.152v-67.584z" horiz-adv-x="701" />
<glyph unicode="&#x2287;" d="M65.536 813.568h293.888q119.808 0 198.144-83.456t78.336-200.192-77.312-201.216-196.096-84.48h-296.96v67.584h292.864q86.016 0 147.968 67.072t61.952 151.040-61.44 150.016-147.456 66.048h-293.888v67.584zM626.688 86.528h-561.152v67.584h561.152v-67.584z" horiz-adv-x="701" />
<glyph unicode="&#x2288;" d="M635.904 86.528h-387.072l-48.128-129.024h-55.296l48.128 129.024h-118.784v67.584h143.36l38.912 102.4q-87.040 26.624-139.264 102.4t-52.224 171.008q0 116.736 78.336 200.192t198.144 83.456h121.856l47.104 125.952h55.296l-47.104-125.952h116.736v-67.584h-141.312l-161.792-434.176h303.104v-67.584h-296.96q-20.48 0-30.72 1.024l-34.816-91.136h362.496v-67.584zM439.296 745.984h-97.28q-86.016 0-147.456-66.048t-61.44-150.016q0-67.584 41.984-126.464t106.496-81.408z" horiz-adv-x="701" />
<glyph unicode="&#x2289;" d="M560.128 939.52l-60.416-163.84q63.488-36.864 99.84-102.912t36.352-142.848q0-116.736-77.312-201.216t-196.096-84.48h-61.44l-33.792-90.112h359.424v-67.584h-384l-48.128-129.024h-55.296l48.128 129.024h-121.856v67.584h146.432l33.792 90.112h-180.224v67.584h205.824l156.672 420.864q-34.816 13.312-68.608 13.312h-293.888v67.584h293.888q44.032 0 92.16-15.36l53.248 141.312h55.296zM326.656 311.808h31.744q86.016 0 147.968 67.072t61.952 151.040q0 51.2-25.6 99.328t-68.608 78.848z" horiz-adv-x="701" />
<glyph unicode="&#x2299;" d="M454.656 451.072q0-26.624-17.92-46.080t-46.592-19.456q-29.696 0-47.616 17.92t-17.92 47.616q0 27.648 19.968 46.080t45.568 18.432 45.056-18.432 19.456-46.080zM729.088 450.048q0-140.288-99.328-239.616t-239.616-99.328-239.616 99.328-99.328 239.616 99.328 239.616 239.616 99.328 239.616-99.328 99.328-239.616zM661.504 450.048q0 112.64-79.872 192t-191.488 79.36-191.488-79.36-79.872-192 79.872-192 191.488-79.36 191.488 79.36 79.872 192z" horiz-adv-x="780" />
<glyph unicode="&#x22a5;" d="M652.288 192h-603.136v67.584h268.288v610.304h67.584v-610.304h267.264v-67.584z" horiz-adv-x="701" />
<glyph unicode="&#x232b;" d="M1242.546 32.858h-761.924l-409.958 409.295 409.958 409.958h761.924v-819.253zM1176.552 98.189v687.933h-667.265l-343.964-343.964 343.964-343.969h667.265zM1027.901 282.837l-44.663-45.327-159.984 159.984-159.984-159.984-44.663 45.327 159.316 159.316-159.316 159.984 44.663 45.327 159.984-159.984 159.984 159.984 44.663-45.327-159.316-159.984 159.316-159.316z" horiz-adv-x="1329" />
<glyph unicode="&#x23ce;" d="M876.544 940.544v-497.664q0-131.072-89.088-227.328t-237.568-96.256h-103.424v-147.456l-20.48-10.24q-53.248 53.248-113.664 100.352t-142.848 104.448-118.272 83.968v10.24q38.912 29.696 118.272 84.48t141.312 102.912 115.2 101.376l20.48-10.24v-147.456h27.648q81.92 0 105.984 30.208t24.064 105.984v412.672h272.384zM825.344 463.36v425.984h-169.984v-356.352q0-26.624-0.512-40.448t-4.096-37.888-10.752-37.376-20.992-30.208-33.792-25.6-50.688-14.848-70.656-6.144h-68.608v107.52l-168.96-117.76q-59.392-40.96-59.392-74.752 0-18.432 14.848-34.304t44.544-39.424l168.96-131.072v119.808h148.48q124.928 0 203.264 78.336t78.336 214.528z" horiz-adv-x="948" />
<glyph unicode="&#x25b1;" d="M1137.664 718.336l-142.336-537.6h-965.632l142.336 537.6h965.632zM1052.672 650.752h-832.512l-105.472-402.432h831.488z" horiz-adv-x="1167" />
<glyph unicode="&#x25b3;" d="M1136.64 61.952h-1100.8l550.912 960.512zM1018.88 129.536l-432.128 756.736-434.176-756.736h866.304z" horiz-adv-x="1172" />
<glyph unicode="&#x25f2;" d="M885.76 30.208h-839.68v839.68h839.68v-839.68zM818.176 476.672v325.632h-703.488v-704.512h324.608v378.88h378.88zM818.176 97.792v325.632h-325.632v-325.632h325.632z" horiz-adv-x="932" />
<glyph unicode="&#x2612;" d="M736.256 216.576l-36.864-36.864-233.472 232.448-233.472-232.448-36.864 36.864 232.448 233.472-232.448 233.472 36.864 36.864 233.472-232.448 233.472 232.448 36.864-36.864-232.448-233.472zM885.76 30.208h-839.68v839.68h839.68v-839.68zM818.176 97.792v704.512h-704.512v-704.512h704.512z" horiz-adv-x="932" />
<glyph unicode="&#x2702;" d="M926.72 698.88l-373.76-148.48 372.736-145.408q-30.72-41.984-96.256-41.984-50.176 0-135.168 33.792l-270.336 104.448q-11.264-4.096-51.712-19.456t-66.048-21.504q-17.408-4.096-43.008-4.096-15.36 0-30.72-16.384 0-13.312 6.144-32.256t6.144-33.28q0-47.104-26.624-72.704t-74.752-25.6-77.824 24.576-29.696 69.632q0 53.248 33.792 82.432t88.064 29.184h99.328q35.84 0 62.976 19.456t34.304 54.272q-32.768 59.392-100.352 59.392h-108.544q-48.128 0-78.848 28.16t-30.72 77.312q0 47.104 28.672 72.704t78.848 25.6q46.080 0 73.728-25.6t27.648-69.632q0-15.36-6.144-37.888t-6.144-27.648q3.072-2.048 9.216-7.168t10.752-7.68 8.704-2.56q30.72 0 45.056-4.096 44.032-11.264 117.76-38.912l271.36 104.448q6.144 2.048 31.744 12.288t35.84 13.824 30.208 7.68 38.4 4.096q48.128 0 95.232-40.96zM214.016 720.384q0 32.768-20.992 50.176t-55.808 17.408q-33.792 0-52.224-18.944t-18.432-51.712q0-30.72 23.040-48.64t59.904-17.92q64.512 0 64.512 69.632zM214.016 378.368q0 67.584-64.512 67.584-36.864 0-59.904-20.992t-23.040-56.832q0-29.696 21.504-45.568t55.296-15.872q70.656 0 70.656 71.68z" horiz-adv-x="984" />
<glyph unicode="&#x29c9;" d="M1005.568-19.968h-626.688v315.392h-313.344v625.664h626.688v-315.392h313.344v-625.664zM624.64 605.696v247.808h-491.52v-490.496h245.76v242.688h245.76zM624.64 363.008v175.104h-178.176v-175.104h178.176zM937.984 47.616v490.496h-245.76v-242.688h-245.76v-247.808h491.52z" horiz-adv-x="1071" />
<glyph unicode="&#x2aaf;" d="M635.904 323.072v-78.848q-86.016 114.688-240.64 176.64t-329.728 75.264v67.584q175.104 13.312 329.728 75.264t240.64 176.64v-78.848q-35.84-61.44-136.704-119.296t-205.312-87.552q104.448-29.696 205.312-87.552t136.704-119.296zM635.904 86.528h-570.368v67.584h570.368v-67.584z" horiz-adv-x="701" />
<glyph unicode="&#x2ab0;" d="M635.904 563.712v-67.584q-175.104-13.312-329.728-75.264t-240.64-176.64v78.848q35.84 61.44 136.704 119.296t205.312 87.552q-104.448 29.696-205.312 87.552t-136.704 119.296v78.848q86.016-114.688 240.64-176.64t329.728-75.264zM635.904 86.528h-570.368v67.584h570.368v-67.584z" horiz-adv-x="701" />
<glyph unicode="&#xe001;" d="M1016.897 839.125v-85.333h-424.32l-242.56-810.667h-119.936l-118.443 426.667h-118.741v85.333h215.637l-0.662 1.664 0.662 2.241 83.072-340.586 211.35 720.662 513.942 0.022zM21.333 543.594l66.176 241.749c2.71 9.856 4.673 17.621 5.91 23.296 2.454 10.581 3.69 17.985 3.69 22.166 0 9.11-2.838 14.785-8.491 17.002-5.697 2.219-16.64 3.562-32.896 4.074v19.946c31.36 1.963 55.723 4.181 73.131 6.656 17.386 2.475 43.349 7.040 77.887 13.674l-44.843-140.097 1.963-1.089c-1.217-1.237 6.209 10.027 22.315 33.792 16.106 23.786 31.466 43.073 46.123 57.856 14.358 15.041 29.418 27.051 45.184 36.033 15.722 8.982 32.278 13.483 49.621 13.483 16.128 0 29.802-4.565 41.088-13.674 11.264-9.11 16.918-24.021 16.918-44.715 0-19.222-11.114-61.611-33.28-127.147-22.485-65.302-33.729-100.289-33.729-104.96 0-4.437 1.345-7.83 4.074-10.175 2.688-2.326 5.419-3.521 8.129-3.521 6.656 0 16.512 8.385 29.568 25.131 6.912 8.875 14.421 19.84 22.55 32.896l16.64-10.709c-18.497-30.314-34.176-52.118-47.082-65.43-22.357-22.912-46.102-34.369-71.125-34.369-13.375 0-25.387 3.946-36.031 11.841-10.646 7.893-15.978 20.33-15.978 37.333 0 10.837 2.603 26.624 7.765 47.317 5.185 20.693 11.114 42.006 17.77 63.937l34.582 113.087c0.725 2.71 1.323 5.057 1.835 7.040 0.469 1.963 0.725 3.946 0.725 5.91 0 5.675-1.898 9.6-5.717 11.819-3.777 2.219-7.893 3.328-12.288 3.328-15.423 0-32.534-12.032-51.393-36.053-18.816-24.021-34.241-48-46.23-71.873-12.971-25.878-23.786-52.118-32.449-78.72-8.641-26.624-19.009-62.23-30.998-106.837h-91.114z" />
<glyph unicode="&#xe002;" d="M1024 832v-85.333h-424.32l-242.56-810.667h-119.936l-118.443 426.667h-118.741v85.333h215.637l-0.662 1.664 0.662 2.241 83.072-340.586 211.35 720.662 513.942 0.022z" />
<glyph unicode="&#xe003;" d="M1016.897 839.125v-85.333h-424.32l-242.56-810.667h-119.936l-118.443 426.667h-118.741v85.333h215.637l-0.662 1.664 0.662 2.241 83.072-340.586 211.35 720.662 513.942 0.022zM149.526 576.555c19.222-19.606 35.072-29.418 47.553-29.418 21.461 0 36.842 7.274 46.102 21.803 9.259 14.549 13.887 31.082 13.887 49.621 0 34.154-14.336 62.037-43.030 83.69-16.384 12.097-42.346 24.491-77.846 37.185v9.665c24.192 8.385 41.472 16.49 51.797 24.298 17.77 13.462 26.646 31.701 26.646 54.721 0 19.905-5.994 35.072-18.005 45.505s-27.264 15.659-45.802 15.659c-17.174 0-32.683-6.229-46.529-18.731-7.808-7.018-16.106-17.451-24.875-31.317l-12.587 7.018c9.366 19.905 22.721 37.654 40.107 53.27 27.691 24.96 60.097 37.461 97.174 37.461 25.557 0 47.807-7.211 66.731-21.654s29.355-33.28 31.317-56.491c0-16.577-3.649-31.36-10.986-44.353-7.318-12.971-19.157-23.658-35.562-32.043v-4.395c24.001-9.557 41.557-23.958 52.671-43.158s16.683-39.467 16.683-60.737c0-42.923-16.577-79.51-49.77-109.761-34.538-31.809-78.23-47.701-131.115-47.701-25.771 0-47.21 4.886-64.384 14.635s-25.771 22.634-25.771 38.634c0 8.576 3.072 16.725 9.216 24.448s16.234 11.563 30.293 11.563c18.176 0 36.864-9.813 56.086-29.418z" />
<glyph unicode="&#xe004;" d="M1016.897 839.125v-85.333h-424.32l-242.56-810.667h-119.936l-118.443 426.667h-118.741v85.333h215.637l-0.662 1.664 0.662 2.241 83.072-340.586 211.35 720.662 513.942 0.022zM60.481 667.073c1.77 2.666 7.168 10.411 16.234 23.211l62.87 89.537 81.174 107.242 24.491 31.616h48.106v-262.081h37.782v-67.306h-37.803v-86.187h-87.361v86.187h-150.506v68.779c1.558 3.35 3.243 6.357 5.014 9.003zM205.974 656.597v167.723h-3.541l-118.059-162.113v-5.61h121.6z" />
<glyph unicode="&#xe005;" d="M41.339 484.407h530.326v-72.887h-530.326v72.887zM41.339 927.596v-370.302h530.326v370.302h-530.326zM498.778 628.467h-384.551v226.241h384.551v-226.241zM41.339 338.633v-370.302h530.326v370.302h-530.326zM498.778 39.505h-384.551v226.241h384.551v-226.241z" horiz-adv-x="613" />
<glyph unicode="&#xe006;" d="M610.188 484.407h530.326v-72.887h-530.326v72.887zM610.188 927.596v-370.302h530.326v370.302h-530.326zM1067.626 628.467h-384.551v226.241h384.551v-226.241zM610.188 338.633v-370.302h530.326v370.302h-530.326zM1067.626 39.505h-384.551v226.241h384.551v-226.241zM6.977 927.596v-959.282h530.326v959.282h-530.326zM464.416 39.505h-384.551v815.204h384.551v-815.204z" horiz-adv-x="1148" />
<glyph unicode="&#xe600;" d="M585.143 228.571q0-14.857-10.857-25.714t-25.714-10.857h-512q-14.857 0-25.714 10.857t-10.857 25.714 10.857 25.714l256 256q10.857 10.857 25.714 10.857t25.714-10.857l256-256q10.857-10.857 10.857-25.714z" horiz-adv-x="585" />
<glyph unicode="&#xe601;" d="M585.143 521.999q0-14.857-10.857-25.714l-256-256q-10.857-10.857-25.714-10.857t-25.714 10.857l-256 256q-10.857 10.857-10.857 25.714t10.857 25.714 25.714 10.857h512q14.857 0 25.714-10.857t10.857-25.714z" horiz-adv-x="585" />
<glyph unicode="&#xe602;" d="M365.714 667.429v-512q0-14.857-10.857-25.714t-25.714-10.857-25.714 10.857l-256 256q-10.857 10.857-10.857 25.714t10.857 25.714l256 256q10.857 10.857 25.714 10.857t25.714-10.857 10.857-25.714z" horiz-adv-x="366" />
<glyph unicode="&#xe603;" d="M329.143 411.429q0-14.857-10.857-25.714l-256-256q-10.857-10.857-25.714-10.857t-25.714 10.857-10.857 25.714v512q0 14.857 10.857 25.714t25.714 10.857 25.714-10.857l256-256q10.857-10.857 10.857-25.714z" horiz-adv-x="366" />
<glyph unicode="&#xe604;" d="M877.714 411.429q0-119.429-58.857-220.286t-159.714-159.714-220.286-58.857-220.286 58.857-159.714 159.714-58.857 220.286 58.857 220.286 159.714 159.714 220.286 58.857 220.286-58.857 159.714-159.714 58.857-220.286z" horiz-adv-x="878" />
<glyph unicode="&#xe605;" d="M877.714 411.429q0-89.143-34.857-170.286t-93.714-140-140-93.714-170.286-34.857q-98.286 0-186.857 41.429t-150.857 116.857q-4 5.714-3.714 12.857t4.857 11.714l78.286 78.857q5.714 5.143 14.286 5.143 9.143-1.143 13.143-6.857 41.714-54.286 102.286-84t128.571-29.714q59.429 0 113.43 23.143t93.429 62.57 62.57 93.429 23.143 113.43-23.143 113.43-62.57 93.429-93.429 62.57-113.43 23.143q-56.001 0-107.429-20.286t-91.429-58l78.286-78.857q17.714-17.143 8.001-39.429-9.714-22.857-33.714-22.857h-256q-14.857 0-25.714 10.857t-10.857 25.714v256q0 24.001 22.857 33.714 22.286 9.714 39.429-8.001l74.286-73.714q61.143 57.714 139.714 89.429t162.571 31.714q89.143 0 170.286-34.857t140-93.714 93.714-140 34.857-170.286z" horiz-adv-x="878" />
<glyph unicode="&#xe606;" d="M877.714 777.142v-256q0-14.857-10.857-25.714t-25.714-10.857h-256q-24.001 0-33.714 22.857-9.714 22.286 8.001 39.429l78.857 78.857q-84.571 78.286-199.429 78.286-59.429 0-113.43-23.143t-93.429-62.57-62.57-93.429-23.143-113.43 23.143-113.43 62.57-93.429 93.429-62.57 113.43-23.143q68 0 128.571 29.714t102.286 84q4 5.714 13.143 6.857 8.001 0 14.286-5.143l78.286-78.857q5.143-4.571 5.429-11.714t-4.286-12.857q-62.286-75.429-150.857-116.857t-186.857-41.429q-89.143 0-170.286 34.857t-140 93.714-93.714 140-34.857 170.286 34.857 170.286 93.714 140 140 93.714 170.286 34.857q84 0 162.571-31.714t139.714-89.429l74.286 73.714q16.571 17.714 40.001 8.001 22.286-9.714 22.286-33.714z" horiz-adv-x="878" />
<glyph unicode="&#xe607;" d="M863.429 320q0-2.857-0.571-4-36.571-153.143-153.143-248.286t-273.143-95.143q-83.429 0-161.43 31.429t-139.143 89.714l-73.714-73.714q-10.857-10.857-25.714-10.857t-25.714 10.857-10.857 25.714v256q0 14.857 10.857 25.714t25.714 10.857h256q14.857 0 25.714-10.857t10.857-25.714-10.857-25.714l-78.286-78.286q40.571-37.714 92-58.286t106.857-20.571q76.571 0 142.857 37.143t106.286 102.286q6.286 9.714 30.286 66.857 4.571 13.143 17.143 13.143h109.714q7.429 0 12.857-5.429t5.429-12.857zM877.714 777.142v-256q0-14.857-10.857-25.714t-25.714-10.857h-256q-14.857 0-25.714 10.857t-10.857 25.714 10.857 25.714l78.857 78.857q-84.571 78.286-199.429 78.286-76.571 0-142.857-37.143t-106.286-102.286q-6.286-9.714-30.286-66.857-4.571-13.143-17.143-13.143h-113.714q-7.429 0-12.857 5.429t-5.429 12.857v4q37.143 153.143 154.286 248.286t274.286 95.143q83.429 0 162.286-31.714t140-89.429l74.286 73.714q10.857 10.857 25.714 10.857t25.714-10.857 10.857-25.714z" horiz-adv-x="878" />
<glyph unicode="&#xe608;" d="M741.714 167.999q0-22.857-16-38.857l-77.714-77.714q-16-16-38.857-16t-38.857 16l-167.999 168.001-168.001-168.001q-16-16-38.857-16t-38.857 16l-77.714 77.714q-16 16-16 38.857t16 38.857l168.001 168.001-168.001 167.999q-16 16-16 38.857t16 38.857l77.714 77.714q16 16 38.857 16t38.857-16l168.001-168.001 167.999 168.001q16 16 38.857 16t38.857-16l77.714-77.714q16-16 16-38.857t-16-38.857l-168.001-167.999 168.001-168.001q16-16 16-38.857z" horiz-adv-x="805" />
<glyph unicode="&#xe609;" d="M219.429 256v-54.857q0-9.143-9.143-9.143h-54.857q-9.143 0-9.143 9.143v54.857q0 9.143 9.143 9.143h54.857q9.143 0 9.143-9.143zM292.571 402.286v-54.857q0-9.143-9.143-9.143h-128q-9.143 0-9.143 9.143v54.857q0 9.143 9.143 9.143h128q9.143 0 9.143-9.143zM219.429 548.571v-54.857q0-9.143-9.143-9.143h-54.857q-9.143 0-9.143 9.143v54.857q0 9.143 9.143 9.143h54.857q9.143 0 9.143-9.143zM804.571 256v-54.857q0-9.143-9.143-9.143h-493.714q-9.143 0-9.143 9.143v54.857q0 9.143 9.143 9.143h493.714q9.143 0 9.143-9.143zM438.857 402.286v-54.857q0-9.143-9.143-9.143h-54.857q-9.143 0-9.143 9.143v54.857q0 9.143 9.143 9.143h54.857q9.143 0 9.143-9.143zM365.714 548.571v-54.857q0-9.143-9.143-9.143h-54.857q-9.143 0-9.143 9.143v54.857q0 9.143 9.143 9.143h54.857q9.143 0 9.143-9.143zM585.143 402.286v-54.857q0-9.143-9.143-9.143h-54.857q-9.143 0-9.143 9.143v54.857q0 9.143 9.143 9.143h54.857q9.143 0 9.143-9.143zM512 548.571v-54.857q0-9.143-9.143-9.143h-54.857q-9.143 0-9.143 9.143v54.857q0 9.143 9.143 9.143h54.857q9.143 0 9.143-9.143zM731.429 402.286v-54.857q0-9.143-9.143-9.143h-54.857q-9.143 0-9.143 9.143v54.857q0 9.143 9.143 9.143h54.857q9.143 0 9.143-9.143zM950.857 256v-54.857q0-9.143-9.143-9.143h-54.857q-9.143 0-9.143 9.143v54.857q0 9.143 9.143 9.143h54.857q9.143 0 9.143-9.143zM658.286 548.571v-54.857q0-9.143-9.143-9.143h-54.857q-9.143 0-9.143 9.143v54.857q0 9.143 9.143 9.143h54.857q9.143 0 9.143-9.143zM804.571 548.571v-54.857q0-9.143-9.143-9.143h-54.857q-9.143 0-9.143 9.143v54.857q0 9.143 9.143 9.143h54.857q9.143 0 9.143-9.143zM950.857 548.571v-201.143q0-9.143-9.143-9.143h-128q-9.143 0-9.143 9.143v54.857q0 9.143 9.143 9.143h64v137.143q0 9.143 9.143 9.143h54.857q9.143 0 9.143-9.143zM1024 118.858v512h-950.857v-512h950.857zM1097.143 630.858v-512q0-30.286-21.429-51.714t-51.714-21.429h-950.857q-30.286 0-51.714 21.429t-21.429 51.714v512q0 30.286 21.429 51.714t51.714 21.429h950.857q30.286 0 51.714-21.429t21.429-51.714z" horiz-adv-x="1097" />
<glyph unicode="&#xe60a;" d="M219.429 246.858v-36.571q0-7.429-5.429-12.857t-12.857-5.429h-36.571q-7.429 0-12.857 5.429t-5.429 12.857v36.571q0 7.429 5.429 12.857t12.857 5.429h36.571q7.429 0 12.857-5.429t5.429-12.857zM219.429 393.142v-36.571q0-7.429-5.429-12.857t-12.857-5.429h-36.571q-7.429 0-12.857 5.429t-5.429 12.857v36.571q0 7.429 5.429 12.857t12.857 5.429h36.571q7.429 0 12.857-5.429t5.429-12.857zM219.429 539.429v-36.571q0-7.429-5.429-12.857t-12.857-5.429h-36.571q-7.429 0-12.857 5.429t-5.429 12.857v36.571q0 7.429 5.429 12.857t12.857 5.429h36.571q7.429 0 12.857-5.429t5.429-12.857zM877.714 246.858v-36.571q0-7.429-5.429-12.857t-12.857-5.429h-548.571q-7.429 0-12.857 5.429t-5.429 12.857v36.571q0 7.429 5.429 12.857t12.857 5.429h548.571q7.429 0 12.857-5.429t5.429-12.857zM877.714 393.142v-36.571q0-7.429-5.429-12.857t-12.857-5.429h-548.571q-7.429 0-12.857 5.429t-5.429 12.857v36.571q0 7.429 5.429 12.857t12.857 5.429h548.571q7.429 0 12.857-5.429t5.429-12.857zM877.714 539.429v-36.571q0-7.429-5.429-12.857t-12.857-5.429h-548.571q-7.429 0-12.857 5.429t-5.429 12.857v36.571q0 7.429 5.429 12.857t12.857 5.429h548.571q7.429 0 12.857-5.429t5.429-12.857zM950.857 137.142v475.429q0 7.429-5.429 12.857t-12.857 5.429h-841.143q-7.429 0-12.857-5.429t-5.429-12.857v-475.429q0-7.429 5.429-12.857t12.857-5.429h841.143q7.429 0 12.857 5.429t5.429 12.857zM1024 758.858v-621.714q0-37.714-26.857-64.571t-64.571-26.857h-841.143q-37.714 0-64.571 26.857t-26.857 64.571v621.714q0 37.714 26.857 64.571t64.571 26.857h841.143q37.714 0 64.571-26.857t26.857-64.571z" />
<glyph unicode="&#xe610;" d="M761.862-64c113.726 206.032 132.888 520.306-313.862 509.824v-253.824l-384 384 384 384v-248.372c534.962 13.942 594.57-472.214 313.862-775.628z" />
<glyph unicode="&#xe611;" d="M576 711.628v248.372l384-384-384-384v253.824c-446.75 10.482-427.588-303.792-313.86-509.824-280.712 303.414-221.1 789.57 313.86 775.628z" />
<glyph unicode="&#xe612;" d="M800 832h-576c-53.020 0-96-42.98-96-96v-32h768v32c0 53.020-42.98 96-96 96zM632.32 896l14.116-101h-268.872l14.114 101h240.642zM640 960h-256c-26.4 0-50.99-21.392-54.642-47.538l-18.714-133.924c-3.654-26.146 14.956-47.538 41.356-47.538h320c26.4 0 45.010 21.392 41.358 47.538l-18.714 133.924c-3.654 26.146-28.244 47.538-54.644 47.538v0zM816 640h-608c-35.2 0-61.392-28.682-58.206-63.738l52.412-576.526c3.186-35.054 34.594-63.736 69.794-63.736h480c35.2 0 66.608 28.682 69.794 63.736l52.41 576.526c3.188 35.056-23.004 63.738-58.204 63.738zM384 64h-96l-32 448h128v-448zM576 64h-128v448h128v-448zM736 64h-96v448h128l-32-448z" />
</font>
</defs>
</svg>
